<?xml version="1.0" standalone="no"?>
<!DOCTYPE svg PUBLIC "-//W3C//DTD SVG 1.1//EN" "http://www.w3.org/Graphics/SVG/1.1/DTD/svg11.dtd" >
<svg xmlns="http://www.w3.org/2000/svg">
<metadata>
This is a custom SVG webfont generated by Font Squirrel.
Designer    : Alexey Kryukov
Foundry URL : http://www.thessalonica.org.ru
</metadata>
<defs>
<font id="webfontObn1Betk" horiz-adv-x="1152" >
<font-face units-per-em="2048" ascent="1580" descent="-468" />
<missing-glyph horiz-adv-x="528" />
<glyph unicode=" "  horiz-adv-x="528" />
<glyph unicode="&#x09;" horiz-adv-x="528" />
<glyph unicode="&#xa0;" horiz-adv-x="528" />
<glyph unicode="!" horiz-adv-x="528" d="M136 104q0 54 37 91t91 37t91 -37t37 -91t-37 -91t-91 -37t-91 37t-37 91zM118 1329q0 69 38.5 114t107.5 45t107.5 -45t38.5 -114q0 -103 -32 -249q-27 -126 -43 -279l-43 -405h-56l-43 405q-16 153 -43 279q-32 146 -32 249z" />
<glyph unicode="&#x22;" horiz-adv-x="880" d="M544 1382q0 46 25 76t69 30t69 -30t25 -76q0 -31 -10 -113l-56 -445h-56l-56 445q-10 83 -10 113zM170 1382q0 46 25 76t69 30t69 -30t25 -76q0 -31 -10 -113l-56 -445h-56l-56 445q-10 83 -10 113z" />
<glyph unicode="#" d="M62 430v96h215l83 408h-298v96h317l93 458h88l-93 -458h334l93 458h88l-93 -458h201v-96h-220l-83 -408h303v-96h-323l-87 -430h-88l87 430h-334l-87 -430h-88l87 430h-195zM365 526h334l83 408h-334z" />
<glyph unicode="$" d="M104 327q0 74 43 125.5t104 51.5q44 0 72.5 -29.5t28.5 -68.5q0 -68 -72 -110q-52 -29 -52 -66q0 -68 64.5 -114t163.5 -67v654q-73 31 -127 62.5t-102 74.5t-73.5 99t-25.5 123q0 145 92.5 255.5t235.5 151.5v111h72v-96q29 4 67 4q40 0 69 -4v96h72v-109 q126 -32 203 -114t77 -177q0 -60 -35 -101t-87 -41q-51 0 -80.5 28.5t-29.5 71.5q0 27 14 53t34 41q15 12 22 19t12.5 18t5.5 24q0 29 -38 58.5t-98 48.5v-580q81 -34 139 -70t104.5 -86t69.5 -117t23 -152q0 -143 -96 -251.5t-240 -150.5v-161h-72v145q-42 -5 -75 -5 q-21 0 -61 2v-142h-72v152q-154 29 -253 117.5t-99 225.5zM264 1158q0 -74 50.5 -127.5t141.5 -96.5v466q-85 -32 -138.5 -95.5t-53.5 -146.5zM528 39q30 -3 58 -3q43 0 78 7v578l-136 53v-635zM528 902l136 -52v568q-36 6 -74 6q-29 0 -62 -5v-517zM736 62q96 35 154 107.5 t58 174.5q0 81 -54 139.5t-158 104.5v-526z" />
<glyph unicode="%" horiz-adv-x="1540" d="M80 1130q0 91 35 173t101 133.5t146 51.5t146 -51.5t101 -133.5t35 -173t-35 -173t-101 -133.5t-146 -51.5t-146 51.5t-101 133.5t-35 173zM214 1130q0 -54 6.5 -104t21.5 -100t46 -80t74 -30t74 30t46 80t21.5 100t6.5 104t-6.5 104t-21.5 100t-46 80t-74 30t-74 -30 t-46 -80t-21.5 -100t-6.5 -104zM279 -16l884 1492h98l-886 -1492h-96zM896 330q0 91 35 173t101 133.5t146 51.5t146 -51.5t101 -133.5t35 -173t-35 -173t-101 -133.5t-146 -51.5t-146 51.5t-101 133.5t-35 173zM1030 330q0 -54 6.5 -104t21.5 -100t46 -80t74 -30t74 30 t46 80t21.5 100t6.5 104t-6.5 104t-21.5 100t-46 80t-74 30t-74 -30t-46 -80t-21.5 -100t-6.5 -104z" />
<glyph unicode="&#x26;" horiz-adv-x="1540" d="M148 328q0 53 13 103t32.5 89.5t53 79.5t64 68.5t77.5 63t81 56.5l86 53q-44 92 -63.5 171t-19.5 182q0 128 74.5 212t175.5 84q61 0 108 -23.5t74 -62.5t40.5 -85t13.5 -95q0 -80 -28 -142t-72 -104.5t-122 -95.5l284 -559q123 182 123 386q0 40 -25 70.5t-72 30.5h-102 v64h504v-64h-106q-51 0 -84 -34t-42 -90q-40 -245 -165 -422q46 -83 88.5 -131.5t86.5 -48.5q52 0 91 41t59.5 107t30.5 125t13 117h64q-5 -96 -23 -179.5t-53 -159t-96 -119.5t-143 -44q-138 0 -234 166q-71 -75 -169 -120.5t-206 -45.5q-82 0 -153.5 20t-130.5 61 t-93.5 112t-34.5 163zM372 372q0 -140 63 -238t173 -98q149 0 293 144l-316 600q-107 -76 -160 -169.5t-53 -238.5zM590 1302q0 -84 29 -165t89 -200q34 25 51 39t42.5 39t37.5 47.5t21.5 55t9.5 70.5q0 115 -40.5 176.5t-117.5 61.5q-49 0 -85.5 -37.5t-36.5 -86.5z" />
<glyph unicode="'" horiz-adv-x="528" d="M170 1382q0 46 25 76t69 30t69 -30t25 -76q0 -31 -10 -113l-56 -445h-56l-56 445q-10 83 -10 113z" />
<glyph unicode="(" horiz-adv-x="780" d="M144 464q0 583 542 1025l40 -43q-225 -219 -318.5 -441.5t-93.5 -540.5q0 -317 93.5 -538.5t318.5 -440.5l-40 -45q-90 74 -165 149.5t-147 174t-121 202.5t-79 232.5t-30 265.5z" />
<glyph unicode=")" horiz-adv-x="780" d="M54 -517q225 219 318.5 441.5t93.5 540.5q0 317 -93.5 538.5t-318.5 440.5l40 45q90 -74 165 -149.5t147 -174t121 -202.5t79 -232.5t30 -265.5q0 -583 -542 -1025z" />
<glyph unicode="*" horiz-adv-x="1104" d="M148 852q0 84 148 104q82 11 164 57q22 11 22 24q0 6 -5.5 12t-10.5 9l-6 3q-82 46 -164 57q-148 20 -148 104q0 31 22.5 56t59.5 25q34 0 62 -21t61 -65q46 -58 124 -107q20 -14 31 -14q10 0 14 6.5t4 26.5q0 90 -31 170q-27 62 -27 94q0 41 22.5 68t61.5 27t61.5 -27 t22.5 -68q0 -32 -27 -94q-31 -80 -31 -170q0 -20 4 -26.5t14 -6.5q11 0 31 14q78 49 124 107q33 44 61 65t62 21q37 0 59.5 -25t22.5 -56q0 -84 -148 -104q-82 -11 -164 -57q-22 -11 -22 -24q0 -6 5.5 -12t10.5 -9l6 -3q82 -46 164 -57q148 -20 148 -104q0 -31 -22.5 -56 t-59.5 -25q-34 0 -62 21t-61 65q-46 58 -124 107q-20 14 -31 14q-10 0 -14 -6.5t-4 -26.5q0 -90 31 -170q27 -62 27 -94q0 -41 -22.5 -68t-61.5 -27t-61.5 27t-22.5 68q0 32 27 94q31 80 31 170q0 20 -4 26.5t-14 6.5q-11 0 -31 -14q-78 -49 -124 -107q-33 -44 -61 -65 t-62 -21q-37 0 -59.5 25t-22.5 56z" />
<glyph unicode="+" d="M62 466v96h460v466h108v-466h460v-96h-460v-466h-108v466h-460z" />
<glyph unicode="," horiz-adv-x="528" d="M104 -383q31 19 55 35.5t62 52t62.5 73.5t43.5 96.5t19 124.5q0 39 -32 39q-16 0 -32 -11q-20 -11 -34 -11q-46 0 -80.5 27t-34.5 89q0 49 36 81.5t83 32.5q75 0 121 -61q41 -54 41 -167q0 -29 -5.5 -64.5t-24.5 -87.5t-48.5 -100.5t-83 -100.5t-123.5 -89z" />
<glyph unicode="-" horiz-adv-x="900" d="M136 346v132h628v-132h-628z" />
<glyph unicode="." horiz-adv-x="528" d="M136 104q0 54 37 91t91 37t91 -37t37 -91t-37 -91t-91 -37t-91 37t-37 91z" />
<glyph unicode="/" horiz-adv-x="722" d="M88 -468l444 1928h102l-444 -1928h-102z" />
<glyph unicode="0" horiz-adv-x="1176" d="M84 730q0 130 33.5 262t93.5 244t156 182t209 70t209 -70t156 -182t93.5 -244t33.5 -262t-33.5 -262t-93.5 -244t-156 -182t-209 -70t-209 70t-156 182t-93.5 244t-33.5 262zM288 730q0 -106 9.5 -203t31 -188t54 -157t82 -106t111.5 -40t111.5 40t82 106t54 157t31 188 t9.5 203t-9.5 203t-31 188t-54 157t-82 106t-111.5 40t-111.5 -40t-82 -106t-54 -157t-31 -188t-9.5 -203z" />
<glyph unicode="1" horiz-adv-x="1176" d="M210 0v64h196q78 0 78 80v1112q0 80 -78 80h-196v64q243 11 414 60h44v-1316q0 -80 78 -80h196v-64h-732z" />
<glyph unicode="2" horiz-adv-x="1176" d="M136 1090q0 78 27 148.5t77 126.5t131 89.5t181 33.5q192 0 312 -106t120 -275q0 -67 -25 -137t-60 -127.5t-97 -128.5t-110 -118l-123 -118q-113 -106 -173 -169.5t-91 -116.5l5 -16h477q53 0 80.5 21t35.5 63l43 204h72l-90 -464h-786v48q44 87 108.5 171t191.5 229 q83 94 132 157t102.5 148t78.5 169t25 173q0 150 -68 239.5t-184 89.5q-73 0 -131.5 -26t-93 -68.5t-53 -92t-18.5 -99.5q0 -18 10.5 -31.5t25.5 -13.5q18 0 36 7q25 11 43 11q48 0 75.5 -30t27.5 -73q0 -58 -37.5 -93t-95.5 -35q-81 0 -131 62t-50 148z" />
<glyph unicode="3" horiz-adv-x="1176" d="M128 300q0 87 47 146.5t117 59.5q52 0 83 -29.5t31 -76.5q0 -95 -85 -118q-69 -19 -69 -64q0 -69 89.5 -125.5t206.5 -56.5q137 0 212.5 98t75.5 242q0 76 -13.5 140t-41.5 115t-77 80t-114 29q-50 0 -91 -10q-49 -12 -91 -12q-28 0 -48.5 12t-20.5 37t20.5 37t48.5 12 q45 0 90 -7q40 -5 92 -5q87 0 158.5 87t71.5 215q0 141 -74.5 229.5t-199.5 88.5q-102 0 -177 -47.5t-75 -114.5q0 -31 17.5 -47.5t53.5 -31.5q84 -37 84 -110q0 -47 -29 -74t-73 -27q-74 0 -125.5 56t-51.5 138q0 132 113 227t290 95q187 0 307 -104t120 -271 q0 -64 -27.5 -121.5t-73 -97.5t-92.5 -68t-95 -44v-15q146 -35 237 -134t91 -246q0 -128 -69 -224t-177.5 -143.5t-237.5 -47.5q-108 0 -205.5 40.5t-160 117t-62.5 170.5z" />
<glyph unicode="4" horiz-adv-x="1176" d="M96 416v56l624 988h64v-980h274v-64h-274v-272q0 -80 78 -80h196v-64h-732v64h196q78 0 78 80v272h-504zM186 480h414v658z" />
<glyph unicode="5" horiz-adv-x="1176" d="M130 268q0 96 52.5 158t126.5 62q62 0 96.5 -36.5t34.5 -87.5t-31 -81.5t-81 -30.5q-23 0 -44 9q-16 7 -27 7q-31 0 -31 -34q0 -88 86.5 -143t203.5 -55q97 0 168.5 59t106.5 153.5t35 210.5q0 112 -30.5 201.5t-96 145.5t-156.5 56q-163 0 -269 -165h-44v745l56 22 q59 -42 130.5 -60t173.5 -18q99 0 194.5 29.5t160.5 76.5l36 -34q-83 -125 -204 -186.5t-243 -61.5q-139 0 -232 41v-393l15 -12q111 80 257 80q209 0 332.5 -117t123.5 -336q0 -223 -146 -362t-378 -139q-157 0 -266.5 82t-109.5 214z" />
<glyph unicode="6" horiz-adv-x="1176" d="M130 692q0 219 70 401.5t194.5 288.5t275.5 106q77 0 135.5 -24t90 -62t47 -78t15.5 -80q0 -64 -39.5 -110.5t-100.5 -46.5q-45 0 -71.5 30t-26.5 65q0 64 45 101q20 16 27.5 28t7.5 32q0 35 -39 58t-82 23q-103 0 -185.5 -75.5t-123.5 -192.5q-50 -141 -50 -420l18 -8 q33 65 115.5 116.5t167.5 51.5q75 0 145.5 -26.5t128 -77.5t92.5 -133.5t35 -185.5q0 -97 -27.5 -186t-78.5 -160t-132.5 -113t-181.5 -42q-80 0 -150.5 28.5t-129.5 87t-102 143t-66.5 202.5t-23.5 259zM335 437q0 -174 76 -287.5t195 -113.5q111 0 173.5 110t62.5 308 q0 172 -63.5 275t-172.5 103q-121 0 -196 -110t-75 -285z" />
<glyph unicode="7" horiz-adv-x="1176" d="M168 980l124 632h72q-18 -88 -18 -104q0 -27 14 -37.5t50 -10.5h667v-69l-277 -507q-44 -81 -72.5 -177.5t-39 -201t-13.5 -168.5t-3 -153q0 -212 -123 -212q-60 0 -96.5 36.5t-36.5 111.5q0 241 276 728l247 436h-554q-40 0 -65 -16t-34 -61l-46 -227h-72z" />
<glyph unicode="8" horiz-adv-x="1176" d="M112 365q0 114 68.5 214.5t175.5 155.5v12q-202 118 -202 335q0 109 61 203.5t159.5 148.5t207.5 54q171 0 289.5 -100t118.5 -257q0 -103 -66 -197t-156 -156v-10q285 -112 285 -375q0 -95 -38 -175.5t-102.5 -133.5t-147.5 -82.5t-173 -29.5q-125 0 -233 46 t-177.5 137.5t-69.5 209.5zM244 377q0 -145 106.5 -243t249.5 -98q149 0 243 84t94 210q0 110 -86.5 180t-277.5 140q-104 38 -159 65q-170 -118 -170 -338zM256 1134q0 -110 104.5 -184t347.5 -158q150 126 150 330q0 130 -92.5 216t-205.5 86q-123 0 -213.5 -89.5 t-90.5 -200.5z" />
<glyph unicode="9" horiz-adv-x="1176" d="M130 987q0 97 27.5 186t78.5 160t132.5 113t181.5 42q80 0 150.5 -28.5t129.5 -87t102 -143t66.5 -202.5t23.5 -259q0 -219 -70 -401.5t-194.5 -288.5t-275.5 -106q-77 0 -135.5 24t-90 62t-47 78t-15.5 80q0 64 39.5 110.5t100.5 46.5q45 0 71.5 -30t26.5 -65 q0 -63 -45 -101q-20 -16 -27.5 -28t-7.5 -32q0 -35 39 -58t82 -23q103 0 185.5 75.5t123.5 192.5q50 141 50 420l-18 8q-33 -65 -115.5 -116.5t-167.5 -51.5q-75 0 -145.5 26.5t-128 77.5t-92.5 133.5t-35 185.5zM310 1006q0 -172 63.5 -275t172.5 -103q121 0 196 110 t75 285q0 174 -76 287.5t-195 113.5q-111 0 -173.5 -110t-62.5 -308z" />
<glyph unicode=":" horiz-adv-x="528" d="M136 104q0 54 37 91t91 37t91 -37t37 -91t-37 -91t-91 -37t-91 37t-37 91zM136 788q0 54 37 91t91 37t91 -37t37 -91t-37 -91t-91 -37t-91 37t-37 91z" />
<glyph unicode=";" horiz-adv-x="528" d="M136 788q0 54 37 91t91 37t91 -37t37 -91t-37 -91t-91 -37t-91 37t-37 91zM104 -383q31 19 55 35.5t62 52t62.5 73.5t43.5 96.5t19 124.5q0 39 -32 39q-16 0 -32 -11q-20 -11 -34 -11q-46 0 -80.5 27t-34.5 89q0 49 36 81.5t83 32.5q75 0 121 -61q41 -54 41 -167 q0 -29 -5.5 -64.5t-24.5 -87.5t-48.5 -100.5t-83 -100.5t-123.5 -89z" />
<glyph unicode="&#x3c;" d="M84 466v96l940 490l44 -88l-869 -450l869 -450l-44 -88z" />
<glyph unicode="=" d="M62 310v96h1028v-96h-1028zM62 622v96h1028v-96h-1028z" />
<glyph unicode="&#x3e;" d="M84 64l869 450l-869 450l44 88l940 -490v-96l-940 -490z" />
<glyph unicode="?" horiz-adv-x="852" d="M168 104q0 54 37 91t91 37t91 -37t37 -91t-37 -91t-91 -37t-91 37t-37 91zM88 1231q0 108 93 182.5t225 74.5q161 0 267.5 -116.5t106.5 -285.5q0 -380 -351 -435q-39 -6 -64 -36t-25 -77v-199h-72v457q52 -3 110 -3q141 0 231.5 86t90.5 216q0 134 -87 231.5t-214 97.5 q-62 0 -110.5 -18.5t-48.5 -57.5q0 -37 29 -62t40.5 -43.5t11.5 -45.5q0 -47 -31 -79t-80 -32q-54 0 -88 42t-34 103z" />
<glyph unicode="@" horiz-adv-x="1716" d="M60 371q0 176 54.5 325.5t145.5 253t210.5 176.5t249.5 107.5t263 34.5q138 0 264 -52.5t216 -141t143.5 -208.5t53.5 -250q0 -273 -128.5 -450.5t-319.5 -177.5q-102 0 -151.5 60.5t-52.5 146.5l-10 3q-35 -80 -112 -145t-167 -65q-116 0 -189.5 80.5t-73.5 219.5 q0 143 54.5 267t161.5 203.5t245 79.5q67 0 115 -56t58 -130l19 4l47 170h140l-143 -502q-29 -98 -29 -162q0 -53 20 -81.5t75 -28.5q146 0 245.5 147.5t99.5 370.5q0 134 -48.5 253t-130.5 202t-193 131t-234 48q-143 0 -277.5 -55.5t-241 -157t-171 -259t-64.5 -345.5 q0 -138 38.5 -255.5t105 -201t156 -142.5t192 -87.5t212.5 -28.5q91 0 179.5 23t159 62t124.5 79.5t96 85.5l48 -63q-44 -45 -100.5 -86.5t-133 -82.5t-175 -65.5t-202.5 -24.5q-119 0 -239.5 33.5t-229 100.5t-192.5 158t-133.5 215.5t-49.5 263.5zM602 247q0 -40 6 -75.5 t19 -66.5t37.5 -49.5t58.5 -18.5q65 0 125.5 54t100.5 133t64 165.5t24 155.5q0 214 -138 214q-76 0 -142 -65t-104 -163q-29 -76 -40 -137t-11 -147z" />
<glyph unicode="A" horiz-adv-x="1496" d="M36 0v64h74q155 0 224 194l440 1230h62l381 -1204q33 -104 74 -162t97 -58h94v-64h-672v64h166q33 0 57.5 23.5t24.5 60.5q0 20 -6 40l-103 324h-430l-64 -185q-9 -25 -18 -67t-9 -59q0 -26 5.5 -46t21 -42.5t51 -35.5t88.5 -13h92v-64h-650zM541 576h388l-186 588z" />
<glyph unicode="B" horiz-adv-x="1442" d="M80 0v64h172q78 0 78 78v1174q0 80 -78 80h-172v64h768q176 0 292 -74q85 -54 123.5 -127.5t38.5 -142.5q0 -119 -97.5 -211.5t-246.5 -123.5v-6q77 -20 134 -43t110 -63q140 -106 140 -275q0 -182 -142 -296q-126 -98 -310 -98h-810zM514 64h330q67 0 126 30.5t98 87.5 q58 84 58 200q0 173 -96 276q-40 46 -96 62t-132 16h-288v-672zM514 800h296q131 0 218 102q70 83 70 214q0 53 -19.5 107.5t-54.5 92.5q-73 80 -203 80h-307v-596z" />
<glyph unicode="C" horiz-adv-x="1500" d="M148 723q0 159 50 302.5t131.5 244t187.5 159.5t217 59q158 0 256 -58q101 -60 161 -136h11l102 186h44v-640h-48q-35 203 -125 348q-68 110 -162.5 173t-204.5 63q-88 0 -157.5 -42t-113 -110t-73 -160.5t-41 -186.5t-11.5 -195q0 -143 24 -267t70.5 -220t121.5 -151.5 t170 -55.5q62 0 123.5 15.5t125.5 54t114 97.5t86 154t45 214h64q-6 -133 -45.5 -239.5t-96.5 -172t-131 -109.5t-144.5 -61t-140.5 -17q-128 0 -241 55.5t-194 153.5t-128 238.5t-47 303.5z" />
<glyph unicode="D" horiz-adv-x="1568" d="M80 0v64h172q78 0 78 80v1172q0 80 -78 80h-172v64h768q139 0 256 -57t195 -155.5t121.5 -232t43.5 -285.5t-43.5 -285.5t-121.5 -232t-195 -155.5t-256 -57h-768zM514 144q0 -80 78 -80h244q57 0 108.5 15.5t107.5 60.5t96 116.5t66 193t26 280.5t-26 280.5t-66 193 t-96 116.5t-107.5 60.5t-108.5 15.5h-244q-78 0 -78 -80v-1172z" />
<glyph unicode="E" horiz-adv-x="1424" d="M80 0v64h172q78 0 78 80v1172q0 80 -78 80h-172v64h1194l18 -572h-56q-7 92 -37 203.5t-81 176.5q-52 66 -107.5 97t-132.5 31h-364v-606h182q60 0 112 93.5t52 230.5h58v-712h-58q0 137 -52 230.5t-112 93.5h-182v-662h324q100 0 174.5 34.5t131.5 113.5q46 64 70.5 143 t45.5 223h60l-8 -578h-1232z" />
<glyph unicode="F" horiz-adv-x="1370" d="M80 0v64h172q78 0 78 80v1172q0 80 -78 80h-172v64h1194l18 -572h-56q-7 92 -37 203.5t-81 176.5q-52 66 -107.5 97t-132.5 31h-364v-606h182q60 0 112 93.5t52 230.5h58v-712h-58q0 137 -52 230.5t-112 93.5h-182v-582q0 -80 78 -80h172v-64h-684z" />
<glyph unicode="G" horiz-adv-x="1472" d="M148 723q0 159 50 302.5t131.5 244t187.5 159.5t217 59q158 0 256 -58q101 -60 161 -136h11l102 186h44v-640h-48q-35 203 -125 348q-68 110 -162.5 173t-204.5 63q-88 0 -157.5 -42t-113 -110t-73 -160.5t-41 -186.5t-11.5 -195q0 -143 24 -267t70.5 -220t121.5 -151.5 t170 -55.5q147 0 240.5 96t93.5 216v200q0 80 -78 80h-224v64h688v-64h-124q-78 0 -78 -80v-576h-48l-50 272h-19q-20 -48 -54 -93t-82.5 -87t-117.5 -67t-147 -25q-128 0 -241 55.5t-194 153.5t-128 238.5t-47 303.5z" />
<glyph unicode="H" horiz-adv-x="1656" d="M80 0v64h172q78 0 78 80v1172q0 80 -78 80h-172v64h684v-64h-172q-78 0 -78 -80v-528h668v528q0 80 -78 80h-172v64h684v-64h-172q-78 0 -78 -80v-1172q0 -80 78 -80h172v-64h-684v64h172q78 0 78 80v580h-668v-580q0 -80 78 -80h172v-64h-684z" />
<glyph unicode="I" horiz-adv-x="804" d="M80 0v64h172q78 0 78 80v1172q0 80 -78 80h-172v64h684v-64h-172q-78 0 -78 -80v-1172q0 -80 78 -80h172v-64h-684z" />
<glyph unicode="J" horiz-adv-x="1180" d="M108 271q0 101 60 166t142 65q63 0 103.5 -40.5t40.5 -95.5q0 -53 -38.5 -90.5t-88.5 -37.5q-25 0 -45 5q-15 5 -38 5q-40 0 -40 -40q0 -78 74 -125t177 -47q124 0 191.5 101.5t67.5 246.5v932q0 80 -78 80h-172v64h684v-64h-172q-78 0 -78 -80v-875 q0 -204 -123.5 -336.5t-327.5 -132.5q-152 0 -245.5 79t-93.5 220z" />
<glyph unicode="K" horiz-adv-x="1604" d="M80 0v64h172q78 0 78 80v1172q0 80 -78 80h-172v64h684v-64h-172q-78 0 -78 -80v-628l488 448q63 57 95.5 95.5t32.5 67.5q0 27 -6.5 43.5t-27.5 32.5q-10 8 -31.5 14.5t-36.5 6.5h-96v64h628v-64q-106 0 -176 -38q-74 -39 -177 -137l-387 -354l518 -687q43 -58 97 -87 t135 -29v-64h-652v64h100q112 0 112 48q0 23 -13 48t-54 80l-378 502l-171 -157v-441q0 -80 78 -80h172v-64h-684z" />
<glyph unicode="L" horiz-adv-x="1424" d="M128 0v64h124q78 0 78 80v1172q0 80 -78 80h-124v64h588v-64h-124q-78 0 -78 -80v-1172q0 -80 78 -80h234q99 0 170 34.5t135 117.5q93 122 125 412h60l-28 -628h-1160z" />
<glyph unicode="M" horiz-adv-x="1954" d="M80 0v64h146q54 0 79 26t25 80v1146q0 80 -78 80h-172v64h476l432 -1132l444 1132h482v-64h-172q-78 0 -78 -80v-1172q0 -80 78 -80h172v-64h-684v64h172q78 0 78 80v1128h-30l-496 -1250h-40l-484 1250h-12v-1102q0 -54 25 -80t79 -26h146v-64h-588z" />
<glyph unicode="N" horiz-adv-x="1570" d="M80 0v64h112q62 0 100 46.5t38 105.5v1017q0 19 -11.5 50.5t-34.5 57.5q-48 55 -102 55h-102v64h370l804 -1098v948q0 40 -20 63t-58 23h-172v64h540v-64h-122q-38 0 -59 -23t-21 -63v-1334h-34l-890 1209v-969q0 -59 38 -105.5t100 -46.5h112v-64h-588z" />
<glyph unicode="O" horiz-adv-x="1552" d="M144 730q0 358 226 584q80 80 192 127t234 47t234 -47t192 -127q226 -226 226 -584t-226 -584q-80 -80 -192 -127t-234 -47t-234 47t-192 127q-226 226 -226 584zM368 730q0 -377 138 -551q65 -82 132 -112.5t158 -30.5t158 30.5t132 112.5q138 174 138 551t-138 551 q-65 82 -132 112.5t-158 30.5t-158 -30.5t-132 -112.5q-138 -174 -138 -551z" />
<glyph unicode="P" horiz-adv-x="1368" d="M78 0v64h172q80 0 80 80v1172q0 80 -80 80h-172v64h756q113 0 205 -33.5t149.5 -88.5t88.5 -123.5t31 -142.5q0 -96 -42 -183t-141 -144q-119 -69 -339 -69h-274v-532q0 -39 21.5 -59.5t60.5 -20.5h172v-64h-688zM512 740h300q292 0 292 332q0 162 -84.5 243t-233.5 81 h-274v-656z" />
<glyph unicode="Q" horiz-adv-x="1552" d="M144 730q0 358 226 584q80 80 192 127t234 47t234 -47t192 -127q226 -226 226 -584t-226 -584q-93 -93 -221 -138q6 -42 9 -86q12 -133 65 -183.5t131 -50.5q89 0 141.5 58.5t52.5 140.5q0 72 -18 113l47 21q27 -54 27 -114q0 -76 -21.5 -137.5t-55 -100t-78 -64 t-87 -35.5t-84.5 -10q-58 0 -105 17t-77 44t-50.5 62.5t-29 71.5t-8.5 73q0 62 18 150q-40 -6 -82 -6q-122 0 -234 47t-192 127q-226 226 -226 584zM368 730q0 -377 138 -551q57 -71 98 -97l3 3q-21 30 -21 73q0 72 47 118.5t115 46.5q66 0 104.5 -18t73.5 -59 q40 -46 63 -160q50 34 97 93q138 174 138 551t-138 551q-65 82 -132 112.5t-158 30.5t-158 -30.5t-132 -112.5q-138 -174 -138 -551zM634 160q0 -62 38 -94q21 -17 47.5 -23.5t76.5 -6.5q54 0 93 9q3 31 3 59q0 69 -41 116t-115 47q-46 0 -74 -30.5t-28 -76.5z" />
<glyph unicode="R" horiz-adv-x="1530" d="M78 0v64h172q80 0 80 80v1172q0 80 -80 80h-172v64h756q113 0 205 -33.5t149.5 -88.5t88.5 -123.5t31 -142.5q0 -90 -44 -169.5t-139 -128.5q-69 -36 -171 -54v-13q55 -16 86 -34t65 -57q53 -61 76.5 -138.5t40.5 -197.5q6 -39 12.5 -69t18.5 -64t31 -52.5t45 -18.5 q36 0 62.5 29.5t39.5 78.5t19 93t8 92h44q0 -62 -6 -116.5t-21.5 -107t-39.5 -90t-62.5 -60.5t-88.5 -23q-73 0 -122.5 20t-84.5 82q-55 97 -71 298q-7 94 -22 160t-50 108q-21 26 -44.5 38t-41 14t-54.5 2h-282v-550q0 -39 21.5 -59.5t60.5 -20.5h172v-64h-688zM512 758 h300q146 0 219 76.5t73 237.5q0 162 -84.5 243t-233.5 81h-274v-638z" />
<glyph unicode="S" horiz-adv-x="1332" d="M148 -28v699h54q31 -139 62 -224.5t91 -170.5q44 -62 79 -100.5t84.5 -73t113 -50.5t146.5 -16q137 0 236.5 75.5t99.5 187.5q0 42 -13 79.5t-34 66.5t-56 56t-69 46.5t-84 41t-90 35.5l-98 33l-109 37q-45 16 -100.5 40.5t-92.5 48t-75.5 56.5t-61 69.5t-37 84 t-14.5 102.5q0 170 115.5 281.5t287.5 111.5q127 0 222 -33.5t185 -98.5h28l84 132h42v-576l-48 -1q-16 80 -28.5 128t-44.5 118.5t-77 117.5q-140 149 -362 149q-113 0 -193.5 -66.5t-80.5 -173.5q0 -42 14 -79t36 -66t57.5 -56t69.5 -46t82.5 -38.5t86.5 -32.5l89 -29 q86 -27 149 -52t126 -63t102 -82t63.5 -106t24.5 -138q0 -218 -118.5 -321t-325.5 -103q-192 0 -330 102q-67 49 -110 92h-19l-111 -194h-48z" />
<glyph unicode="T" horiz-adv-x="1444" d="M116 844l6 616h1240l6 -616h-56q-6 116 -36 234t-77 186q-36 53 -103.5 92.5t-148.5 39.5h-113v-1252q0 -38 23 -59t63 -21h172v-64h-698v64h172q39 0 61.5 20.5t22.5 59.5v1252h-113q-81 0 -148.5 -39.5t-103.5 -92.5q-47 -68 -77 -186t-36 -234h-56z" />
<glyph unicode="U" horiz-adv-x="1630" d="M80 1396v64h684v-64h-172q-78 0 -78 -80v-944q0 -171 84 -253.5t270 -82.5q100 0 179.5 30t125.5 78t69.5 103t23.5 110v887q0 59 -38 105.5t-100 46.5h-112v64h588v-64h-112q-62 0 -100 -46.5t-38 -105.5v-858q0 -86 -32 -160.5t-91.5 -131t-153 -89.5t-209.5 -33 q-538 0 -538 448v896q0 80 -78 80h-172z" />
<glyph unicode="V" horiz-adv-x="1496" d="M36 1396v64h672v-64h-166q-33 0 -57.5 -22.5t-24.5 -59.5q0 -20 6 -40l309 -976l288 837q9 25 18 67t9 59q0 25 -5.5 45t-21 42.5t-51 35t-88.5 12.5h-92v64h650v-64h-86q-156 0 -224 -192l-428 -1230h-62l-381 1204q-33 104 -74 161t-97 57h-94z" />
<glyph unicode="W" horiz-adv-x="2200" d="M8 1396v64h672v-64h-138q-33 0 -57.5 -22.5t-24.5 -59.5q0 -20 6 -40l275 -966l257 827q9 25 18 67t9 59q0 25 -5.5 45t-21 42.5t-51 35t-88.5 12.5h-89v64h672v-64h-139q-34 0 -58 -21t-24 -57q0 -24 6 -44l275 -966l257 827q9 25 18 67t9 59q0 25 -5.5 45t-21 42.5 t-51 35t-88.5 12.5h-84v64h650v-64h-74q-79 0 -144.5 -49t-98.5 -143l-398 -1230h-62l-329 1143l-370 -1143h-62l-347 1204q-33 104 -74 161t-97 57h-122z" />
<glyph unicode="X" horiz-adv-x="1592" d="M80 0v64q194 6 288 134l392 531l-352 549q-23 37 -70 74q-53 44 -116 44h-86v64h664v-64h-98q-37 0 -63.5 -21t-26.5 -53q0 -26 18 -54l246 -381l234 317q56 77 56 130q0 48 -46 56q-26 6 -116 6h-60v64h636v-64q-127 0 -194.5 -23.5t-103.5 -72.5l-358 -486l402 -622 q30 -47 76 -86q30 -23 51.5 -32.5t58.5 -9.5h74v-64h-688v64h128q34 0 60 23.5t26 58.5q0 33 -12 52l-293 457l-261 -355q-48 -65 -48 -126q0 -38 25.5 -74t74.5 -36h118v-64h-636z" />
<glyph unicode="Y" horiz-adv-x="1660" d="M88 1396v64h695v-64h-144q-35 0 -55 -20t-20 -54q0 -26 18 -54l311 -513l293 449q48 73 48 130q0 48 -46 56q-26 6 -116 6h-96v64h636v-64q-86 0 -138 -12t-77 -30.5t-49 -53.5l-418 -626v-530q0 -80 78 -80h172v-64h-684v64h172q78 0 78 80v520l-386 614q-28 44 -73 78 q-53 40 -113 40h-86z" />
<glyph unicode="Z" horiz-adv-x="1412" d="M102 0v48l968 1348h-374q-103 0 -166.5 -30t-112.5 -98q-94 -130 -141 -424h-52l12 616h1080v-44l-963 -1344h490q84 0 156 32.5t114 90.5q60 82 87.5 188t41.5 245h60l-20 -628h-1180z" />
<glyph unicode="[" horiz-adv-x="780" d="M232 -536v1996h452v-56h-212q-54 0 -74 -21t-20 -75v-1688q0 -55 20.5 -77.5t73.5 -22.5h212v-56h-452z" />
<glyph unicode="\" horiz-adv-x="722" d="M88 1460h102l444 -1928h-102z" />
<glyph unicode="]" horiz-adv-x="780" d="M96 -480h212q54 0 74 21t20 75v1688q0 55 -20.5 77.5t-73.5 22.5h-212v56h452v-1996h-452v56z" />
<glyph unicode="^" d="M42 738l486 726h96l486 -726l-85 -54l-449 676l-449 -676z" />
<glyph unicode="_" horiz-adv-x="1024" d="M0 -256h1024v-96h-1024v96z" />
<glyph unicode="`" horiz-adv-x="880" d="M150 1393q0 30 19 49.5t51 19.5q34 0 63 -25t61 -69l204 -283l-30 -29l-270 211q-98 76 -98 126z" />
<glyph unicode="&#x2cb;" horiz-adv-x="880" d="M150 1393q0 30 19 49.5t51 19.5q34 0 63 -25t61 -69l204 -283l-30 -29l-270 211q-98 76 -98 126z" />
<glyph unicode="a" horiz-adv-x="1032" d="M88 190q0 187 279 290q126 46 273 79v77q0 36 -10 72.5t-31 72t-60 57.5t-91 22q-80 0 -115 -18q-51 -26 -51 -60q0 -30 24 -61q37 -45 37 -82q0 -36 -20 -61.5t-67 -25.5q-53 0 -86.5 37t-33.5 91q0 96 80 166t222 70q89 0 157.5 -28.5t109 -78.5t61 -112t20.5 -135 v-435q0 -26 15.5 -40.5t32.5 -14.5q29 0 48 14.5t27.5 44.5t11.5 61t3 77t-6 136h44q6 -61 6 -136q0 -60 -5.5 -103.5t-21 -88.5t-49.5 -69t-86 -24q-77 0 -121.5 43t-44.5 129l-6 3q-63 -80 -132.5 -127.5t-161.5 -47.5q-111 0 -181.5 51t-70.5 155zM258 212 q0 -63 42.5 -109.5t103.5 -46.5q108 0 236 177v284q-139 -30 -252 -93q-130 -73 -130 -212z" />
<glyph unicode="b" horiz-adv-x="1094" d="M12 1404v56l320 12v-736l8 -2q43 77 118 129.5t159 52.5q167 0 280 -132t113 -334t-113 -334t-280 -132q-110 0 -188.5 60.5t-121.5 157.5h-17l-68 -202h-36v1354q0 50 -50 50h-124zM332 450q0 -177 86 -293.5t199 -116.5q223 0 223 410t-223 410q-113 0 -199 -116.5 t-86 -293.5z" />
<glyph unicode="c" horiz-adv-x="940" d="M84 450q0 204 127 335t337 131q61 0 111 -17t81 -43t52 -59t29.5 -62.5t8.5 -55.5q0 -56 -31.5 -93.5t-85.5 -37.5q-39 0 -65.5 24t-26.5 62q0 56 43 99q32 33 32 61q0 7 -3 14.5t-13 17t-25.5 17t-44 12.5t-64.5 5q-62 0 -111.5 -22.5t-83 -60.5t-55.5 -91t-32 -111.5 t-10 -124.5q0 -410 254 -410q75 0 132 28.5t90.5 76.5t51 98.5t24.5 107.5h58q-3 -46 -14.5 -92.5t-38.5 -97t-65.5 -89t-100 -63.5t-137.5 -25q-191 0 -307.5 131.5t-116.5 334.5z" />
<glyph unicode="d" horiz-adv-x="1126" d="M84 450q0 202 113 334t280 132q182 0 279 -182l6 2v566q0 54 -24 78t-78 24h-205v56l453 12v-1366q0 -50 50 -50h124v-56h-320v162l-6 2q-107 -180 -279 -180q-167 0 -280 132t-113 334zM254 450q0 -410 223 -410q113 0 199 116.5t86 293.5t-86 293.5t-199 116.5 q-223 0 -223 -410z" />
<glyph unicode="e" horiz-adv-x="940" d="M84 450q0 203 116.5 334.5t307.5 131.5q76 0 136.5 -27.5t98.5 -72t63.5 -104.5t35.5 -120.5t10 -123.5h-598v-18q0 -410 254 -410q75 0 132 28.5t90.5 76.5t51 98.5t24.5 107.5h58q-3 -46 -14.5 -92.5t-38.5 -97t-65.5 -89t-100 -63.5t-137.5 -25q-191 0 -307.5 131.5 t-116.5 334.5zM256 524h345q47 0 64 22t17 61q0 41 -8 81t-26 80.5t-54 66t-86 25.5q-230 0 -252 -336z" />
<glyph unicode="f" horiz-adv-x="736" d="M62 0v56h124q50 0 50 50v738h-174v56h174v188q0 78 24 149.5t68.5 127.5t115.5 89.5t158 33.5q85 0 153.5 -63.5t68.5 -146.5q0 -57 -35.5 -97.5t-86.5 -40.5q-41 0 -66.5 26.5t-25.5 63.5q0 47 41 86q27 25 27 51q0 29 -24.5 47t-63.5 18q-208 0 -208 -314v-218h218v-56 h-218v-738q0 -50 50 -50h124v-56h-494z" />
<glyph unicode="g" horiz-adv-x="1240" d="M80 -321q0 124 226 236v6q-77 16 -127.5 60.5t-50.5 127.5q0 69 64 111.5t146 51.5v8q-170 90 -170 289q0 109 55 189.5t142 119t191 38.5q101 0 187.5 -38t138.5 -109q18 60 54.5 103.5t90.5 43.5q61 0 99 -27q56 -40 56 -110q0 -62 -28 -104.5t-80 -42.5 q-39 0 -64.5 24.5t-25.5 60.5q0 45 36 73q35 27 35 45q0 25 -44 25q-65 0 -100 -133q33 -68 33 -158q0 -109 -55 -189.5t-142 -119t-191 -38.5q-36 0 -67 5t-70 5q-51 0 -101 -10t-90 -36t-40 -64q0 -19 6.5 -33t20.5 -22t26.5 -13t35 -7t35 -2.5t36.5 -0.5h363 q136 0 230 -73.5t94 -196.5q0 -63 -29.5 -117.5t-78.5 -92t-112.5 -64.5t-131 -39.5t-134.5 -12.5t-127.5 5.5t-125 21t-110.5 40t-76 67t-30 97.5zM204 -311q0 -55 32 -93.5t86.5 -57.5t110.5 -26.5t121 -7.5q94 0 182 28t151.5 90t63.5 144q0 52 -38.5 85t-96 46 t-134.5 13h-289q-38 -16 -65.5 -31.5t-58.5 -41.5t-48 -63.5t-17 -84.5zM320 569q0 -120 62 -205.5t174 -85.5t174 85.5t62 205.5t-62 205.5t-174 85.5t-174 -85.5t-62 -205.5z" />
<glyph unicode="h" horiz-adv-x="1154" d="M48 0v56h124q50 0 50 50v1248q0 50 -50 50h-124v56l320 12v-762l8 -5q134 211 287 211q84 0 131 -24q70 -35 106 -104t36 -142v-540q0 -50 50 -50h124v-56h-494v56h124q50 0 50 50v566q0 80 -35.5 130t-114.5 50q-82 0 -174 -112q-53 -64 -98 -156v-478q0 -50 50 -50h124 v-56h-494z" />
<glyph unicode="i" horiz-adv-x="618" d="M80 0v56h124q50 0 50 50v688q0 50 -50 50h-124v56l320 12v-806q0 -50 50 -50h124v-56h-494zM202 1358q0 52 36 88t88 36t88 -36t36 -88t-36 -88t-88 -36t-88 36t-36 88z" />
<glyph unicode="j" horiz-adv-x="652" d="M-96 -358q0 55 36 96.5t86 41.5q41 0 66.5 -26.5t25.5 -63.5q0 -53 -46 -85q-17 -12 -23 -20t-6 -22q0 -27 22.5 -43t54.5 -16q90 0 137 64t47 225v1001q0 50 -50 50h-124v56l320 12v-1088q0 -66 -19.5 -130t-58.5 -120.5t-107 -91t-155 -34.5q-84 0 -145 56t-61 138z M252 1358q0 52 36 88t88 36t88 -36t36 -88t-36 -88t-88 -36t-88 36t-36 88z" />
<glyph unicode="k" horiz-adv-x="1190" d="M48 0v56h124q50 0 50 50v1248q0 50 -50 50h-124v56l320 12v-1056l362 284q36 29 36 78q0 29 -24 48.5t-56 19.5h-122v54h544v-54q-56 0 -103 -17t-110 -67l-298 -238l275 -344q45 -55 92 -86q58 -38 146 -38v-56h-480v56h62q19 0 33.5 8.5t14.5 23.5q0 26 -36 72 l-217 280l-119 -92v-242q0 -50 50 -50h124v-56h-494z" />
<glyph unicode="l" horiz-adv-x="586" d="M48 0v56h124q50 0 50 50v1248q0 50 -50 50h-124v56l320 12v-1366q0 -50 50 -50h124v-56h-494z" />
<glyph unicode="m" horiz-adv-x="1716" d="M62 0v56h124q50 0 50 50v688q0 50 -50 50h-124v56l320 12v-225l8 -4q57 98 132.5 165.5t166.5 67.5q119 0 182 -65.5t69 -168.5l8 -3q64 113 134.5 175t162.5 62q124 0 188.5 -76t64.5 -186v-548q0 -50 50 -50h124v-56h-494v56h124q50 0 50 50v566q0 83 -30 131.5 t-107 48.5q-93 0 -196 -165q-34 -54 -56.5 -132t-22.5 -138v-311q0 -50 50 -50h124v-56h-494v56h124q50 0 50 50v566q0 84 -28.5 132t-105.5 48q-88 0 -198 -165q-80 -120 -80 -270v-311q0 -50 50 -50h124v-56h-494z" />
<glyph unicode="n" horiz-adv-x="1168" d="M62 0v56h124q50 0 50 50v688q0 50 -50 50h-124v56l320 12v-202l8 -5q134 211 287 211q84 0 131 -24q70 -35 106 -104t36 -142v-540q0 -50 50 -50h124v-56h-494v56h124q50 0 50 50v566q0 80 -35.5 130t-114.5 50q-82 0 -174 -112q-53 -64 -98 -156v-478q0 -50 50 -50h124 v-56h-494z" />
<glyph unicode="o" horiz-adv-x="1016" d="M84 450q0 203 116.5 334.5t307.5 131.5t307.5 -131.5t116.5 -334.5t-116.5 -334.5t-307.5 -131.5t-307.5 131.5t-116.5 334.5zM254 450q0 -410 254 -410t254 410t-254 410t-254 -410z" />
<glyph unicode="p" horiz-adv-x="1130" d="M48 -480h124q50 0 50 50v1224q0 50 -50 50h-124v56l320 12v-176l8 -2q43 77 118 129.5t159 52.5q167 0 280 -132t113 -334t-113 -334t-280 -132q-172 0 -279 180l-6 -2v-592q0 -50 50 -50h124v-56h-494v56zM368 450q0 -177 86 -293.5t199 -116.5q223 0 223 410t-223 410 q-113 0 -199 -116.5t-86 -293.5z" />
<glyph unicode="q" horiz-adv-x="1094" d="M84 450q0 202 113 334t280 132q110 0 186 -59.5t118 -158.5h17l74 202h36v-1330q0 -50 50 -50h124v-56h-494v56h124q50 0 50 50v592l-6 2q-107 -180 -279 -180q-167 0 -280 132t-113 334zM254 450q0 -410 223 -410q113 0 199 116.5t86 293.5t-86 293.5t-199 116.5 q-223 0 -223 -410z" />
<glyph unicode="r" horiz-adv-x="886" d="M62 0v56h124q50 0 50 50v688q0 50 -50 50h-124v56l320 12v-213l10 -4q91 221 248 221q40 0 71 -12.5t48.5 -31.5t28.5 -44t14.5 -46t3.5 -42q0 -52 -31.5 -94.5t-78.5 -42.5q-46 0 -71.5 27.5t-25.5 68.5q0 38 27 71q22 25 22 49q0 33 -40 33q-57 0 -110 -68.5 t-84.5 -172.5t-31.5 -207v-298q0 -50 50 -50h124v-56h-494z" />
<glyph unicode="s" horiz-adv-x="838" d="M96 -16v421h36q23 -131 77 -207q113 -158 274 -158q81 0 138 42.5t57 117.5q0 31 -18.5 59t-43.5 47.5t-68.5 40t-75.5 32.5t-83 29q-46 15 -76 27t-67.5 30.5t-61.5 40t-45.5 50t-32 66.5t-10.5 84q0 89 72 149.5t166 60.5q95 0 170 -43q46 -27 92 -67h10l61 110h28 v-352h-40q-8 46 -33 102.5t-53 86.5q-54 57 -103.5 82t-127.5 25q-67 0 -112.5 -31t-45.5 -94q0 -26 10.5 -48.5t32.5 -41.5t43 -33t56.5 -29t58 -23.5t61.5 -21.5q85 -29 136 -53t93.5 -59.5t60.5 -83t18 -114.5q0 -108 -77 -176t-186 -68q-111 0 -194 51q-65 41 -97 73 h-10l-57 -124h-33z" />
<glyph unicode="t" horiz-adv-x="810" d="M56 844v56q67 9 114 44t72 94t35.5 127t10.5 155h88v-420h286v-56h-286v-654q0 -73 25.5 -107.5t98.5 -34.5q89 0 139.5 65.5t50.5 161.5v225h48v-242q0 -122 -72 -198t-214 -76q-89 0 -155.5 55t-66.5 151v654h-174z" />
<glyph unicode="u" horiz-adv-x="1136" d="M40 844v56l320 12v-684q0 -84 28.5 -132t105.5 -48q55 0 99 32.5t91 90.5q32 38 60 110t28 131v382q0 50 -50 50h-124v56l320 12v-806q0 -50 50 -50h124v-56h-320v201l-8 5q-48 -91 -126.5 -156.5t-161.5 -65.5q-84 0 -131 24q-69 35 -100 102t-31 144v540q0 50 -50 50 h-124z" />
<glyph unicode="v" horiz-adv-x="1020" d="M16 844v56h440v-56h-84q-25 0 -44 -11t-19 -31q0 -26 11 -55l209 -556l197 496q18 46 18 89q0 27 -17.5 47.5t-45.5 20.5h-117v56h420v-56q-40 0 -63.5 -5t-47.5 -23q-46 -36 -69 -93l-295 -741h-44l-283 744q-9 24 -15 36.5t-17.5 28t-26.5 26.5q-24 18 -46 22.5 t-61 4.5z" />
<glyph unicode="w" horiz-adv-x="1478" d="M16 844v56h440v-56h-72q-25 0 -44 -11t-19 -31q0 -26 11 -55l182 -530l160 470q5 15 5 35q0 54 -50 94q-23 18 -48.5 23t-66.5 5v56h440v-56h-72q-25 0 -44 -11t-19 -31q0 -26 11 -55l182 -530l160 470q15 43 15 89q0 27 -17.5 47.5t-45.5 20.5h-102v56h420v-56 q-89 0 -125 -28q-46 -36 -69 -93l-256 -741h-50l-223 647l-225 -647h-50l-258 744q-9 24 -15 36.5t-17.5 28t-26.5 26.5q-24 18 -47.5 22.5t-63.5 4.5z" />
<glyph unicode="x" d="M56 0v56q95 8 150 37q56 30 95 75l224 259l-227 317q-36 50 -82 77q-38 23 -81 23h-65v56h482v-56h-47q-21 0 -36 -9.5t-15 -27.5q0 -39 39 -93l127 -176l129 149q27 31 27 85q0 29 -21 50.5t-50 21.5h-65v56h440v-56h-31q-50 0 -115 -46q-52 -37 -96 -87l-186 -218 l246 -340q27 -38 48 -58q41 -39 79 -39h65v-56h-498v56h111q44 0 44 33q0 27 -43 88l-147 205l-149 -175q-42 -49 -42 -89q0 -26 16.5 -44t40.5 -18h73v-56h-440z" />
<glyph unicode="y" horiz-adv-x="1040" d="M6 -374q0 62 36 102t92 40q44 0 69 -29.5t25 -70.5q0 -36 -19 -60.5t-42 -32.5q-25 -9 -25 -21q0 -22 12 -33q20 -17 51 -17q47 0 89 34.5t62 88.5l126 348l-300 751q-9 24 -15 36.5t-17.5 28t-26.5 26.5q-24 18 -46 22.5t-61 4.5v56h450v-56h-84q-25 0 -44 -11t-19 -31 q0 -26 11 -55l225 -571l185 511q13 33 13 89q0 27 -17.5 47.5t-45.5 20.5h-114v56h428v-56q-40 0 -63.5 -5t-47.5 -23q-46 -36 -69 -93l-406 -1104q-63 -171 -230 -171q-76 0 -129 50.5t-53 127.5z" />
<glyph unicode="z" horiz-adv-x="920" d="M64 0v56l562 788h-214q-106 0 -162 -78q-38 -53 -53 -108.5t-21 -132.5h-44l12 375h660v-54l-560 -790h260q138 0 214 116q32 48 52 132.5t26 163.5h44l-14 -468h-762z" />
<glyph unicode="{" horiz-adv-x="780" d="M182 442v44q233 0 233 223q0 75 -38 225q-41 164 -41 251q0 133 93.5 208.5t252.5 94.5l10 -54q-110 -19 -167 -56t-57 -115q0 -91 38 -236q41 -156 41 -235q0 -143 -63 -223t-164 -103v-4q101 -23 164 -103.5t63 -223.5q0 -79 -41 -235q-38 -145 -38 -236 q0 -78 56.5 -114.5t167.5 -55.5l-10 -54q-159 19 -252.5 94.5t-93.5 208.5q0 87 41 251q38 150 38 225q0 223 -233 223z" />
<glyph unicode="|" horiz-adv-x="512" d="M202 -468v1928h108v-1928h-108z" />
<glyph unicode="}" horiz-adv-x="780" d="M88 -506q110 19 167 56t57 115q0 91 -38 236q-41 156 -41 235q0 143 63 223t164 103v4q-101 23 -164 103.5t-63 223.5q0 79 41 235q38 145 38 236q0 78 -56.5 114.5t-167.5 55.5l10 54q159 -19 252.5 -94.5t93.5 -208.5q0 -87 -41 -251q-38 -150 -38 -225 q0 -223 233 -223v-44q-233 0 -233 -223q0 -75 38 -225q41 -164 41 -251q0 -133 -93.5 -208.5t-252.5 -94.5z" />
<glyph unicode="~" d="M112 422q130 208 308 208q40 0 80.5 -11t64.5 -22.5t63 -32.5q36 -19 57 -29t54 -19.5t63 -9.5q69 0 112 31.5t90 96.5l36 -28q-130 -208 -308 -208q-56 0 -103 17t-105 49q-106 58 -174 58q-69 0 -112 -31.5t-90 -96.5z" />
<glyph unicode="&#xa1;" horiz-adv-x="528" d="M136 824q0 54 37 91t91 37t91 -37t37 -91t-37 -91t-91 -37t-91 37t-37 91zM118 -401q0 103 32 249q27 126 43 279l43 405h56l43 -405q16 -153 43 -279q32 -146 32 -249q0 -69 -38.5 -114t-107.5 -45t-107.5 45t-38.5 114z" />
<glyph unicode="&#xa2;" d="M198 450q0 204 127 335t337 131q30 0 62 -5l192 551h62l-198 -565q57 -21 96 -62.5t53.5 -81t14.5 -74.5q0 -56 -31.5 -93.5t-85.5 -37.5q-39 0 -65.5 24t-26.5 62q0 56 43 99q32 33 32 61q0 31 -48 51l-268 -769q52 -36 128 -36q75 0 132 28.5t90.5 76.5t51 98.5 t24.5 107.5h58q-3 -46 -14.5 -92.5t-38.5 -97t-65.5 -89t-100 -63.5t-137.5 -25q-82 0 -152 26l-198 -568h-62l207 592q-103 57 -161 166.5t-58 249.5zM368 450q0 -229 79 -330l258 738q-26 2 -45 2q-62 0 -111.5 -22.5t-83 -60.5t-55.5 -91t-32 -111.5t-10 -124.5z" />
<glyph unicode="&#xa3;" d="M66 37q0 52 69 125q56 61 84 114q78 147 95 386h-230l6 64h229q15 326 115 514q64 120 162.5 184t224.5 64q97 0 167 -64t70 -155q0 -62 -36 -110.5t-98 -48.5q-38 0 -63 23.5t-25 60.5q0 49 56 90q44 32 44 58q0 31 -35 56.5t-84 25.5q-165 0 -235 -146 q-69 -142 -99 -552h333l-6 -64h-334q-18 -120 -60 -201q-68 -135 -162 -240l6 -7q69 26 130 26q97 0 208 -50q94 -42 190 -42q91 0 144.5 46.5t83.5 129.5l40 -16q-9 -46 -21.5 -87t-37 -88.5t-55.5 -81.5t-79 -56.5t-105 -22.5q-77 0 -127 24t-111 78q-104 94 -186 94 q-45 0 -107 -26q-15 -31 -23 -80q-15 -90 -76 -90q-27 0 -44.5 20.5t-17.5 44.5z" />
<glyph unicode="&#xa4;" d="M134 139l121 120q-83 109 -83 253q0 145 84 253l-122 122l68 69l122 -123q106 83 252 83q144 0 253 -83l121 123l68 -70l-121 -121q83 -106 83 -253q0 -146 -83 -252l121 -121l-68 -69l-121 122q-108 -84 -253 -84q-147 0 -253 83l-120 -121zM260 512q0 -138 89 -227 t227 -89t227 89t89 227t-89 227t-227 89t-227 -89t-89 -227z" />
<glyph unicode="&#xa5;" d="M29 1402v56h459v-56h-88q-24 0 -43.5 -12t-19.5 -32q0 -24 11 -53l256 -522l246 462q26 50 26 87q0 27 -16.5 48.5t-44.5 21.5h-117v56h434v-56q-40 0 -63.5 -5t-47.5 -23q-49 -38 -79 -93l-239 -441h275v-96h-327l-1 -1v-191h328v-96h-328v-350q0 -50 50 -50h124v-56 h-494v56h124q50 0 50 50v350h-332v96h332v125l-34 67h-298v96h249l-226 444q-34 68 -65 91q-24 18 -43.5 22.5t-57.5 4.5z" />
<glyph unicode="&#xa6;" horiz-adv-x="512" d="M202 300h108v-768h-108v768zM202 692v768h108v-768h-108z" />
<glyph unicode="&#xa7;" horiz-adv-x="1042" d="M152 561q0 257 186 362q-70 114 -70 227q0 76 28.5 145.5t88.5 117t138 47.5q89 0 140 -55.5t51 -125.5q0 -57 -30 -92.5t-72 -35.5q-36 0 -60 22.5t-24 59.5q0 39 25 74q21 29 21 45q0 17 -16.5 30.5t-53.5 13.5q-40 0 -69 -17.5t-43.5 -46t-21 -57.5t-6.5 -59 q0 -82 52 -163t162 -202q116 -128 162 -221t46 -199q0 -257 -186 -362q70 -114 70 -227q0 -76 -28.5 -145.5t-88.5 -117t-138 -47.5q-89 0 -140 55.5t-51 125.5q0 57 30 92.5t72 35.5q36 0 60 -22.5t24 -59.5q0 -39 -25 -74q-21 -29 -21 -45q0 -17 16.5 -30.5t53.5 -13.5 q40 0 69 17.5t43.5 46t21 57.5t6.5 59q0 82 -52 163t-162 202q-116 128 -162 221t-46 199zM244 655q0 -75 32 -150.5t73.5 -131t106.5 -124.5q73 -79 113 -134q56 33 90.5 83.5t34.5 138.5q0 75 -32 150.5t-73.5 131t-106.5 124.5q-73 79 -113 134q-56 -33 -90.5 -83.5 t-34.5 -138.5z" />
<glyph unicode="&#xa8;" horiz-adv-x="880" d="M135 1208q0 42 27 69t69 27t69 -27t27 -69t-27 -69t-69 -27t-69 27t-27 69zM553 1208q0 42 27 69t69 27t69 -27t27 -69t-27 -69t-69 -27t-69 27t-27 69z" />
<glyph unicode="&#xa9;" horiz-adv-x="1636" d="M60 730q0 160 58 300.5t158.5 241t241 158.5t300.5 58t300.5 -58t241 -158.5t158.5 -241t58 -300.5t-58 -300.5t-158.5 -241t-241 -158.5t-300.5 -58t-300.5 58t-241 158.5t-158.5 241t-58 300.5zM132 730q0 -190 90.5 -349.5t248 -252t347.5 -92.5t347.5 92.5t248 252 t90.5 349.5t-90.5 349.5t-248 252t-347.5 92.5t-347.5 -92.5t-248 -252t-90.5 -349.5zM390 730q0 204 127 335t337 131q105 0 198 -86l72 86h44v-424h-50q-15 160 -93 272q-67 96 -173 96q-62 0 -111.5 -22.5t-83 -60.5t-55.5 -91t-32 -111.5t-10 -124.5q0 -410 254 -410 q75 0 132 28.5t90.5 76.5t51 98.5t24.5 107.5h58q-3 -46 -14.5 -92.5t-38.5 -97t-65.5 -89t-100 -63.5t-137.5 -25q-191 0 -307.5 131.5t-116.5 334.5z" />
<glyph unicode="&#xaa;" horiz-adv-x="780" d="M132 1015q0 103 180 168q95 34 159 47v39q0 46 -25.5 79.5t-88.5 33.5q-45 0 -67 -9q-30 -14 -30 -36q0 -17 11 -30q20 -23 20 -38q0 -19 -13.5 -33t-42.5 -14q-30 0 -50.5 22t-20.5 50q0 54 48 93t138 39q111 0 164 -56t53 -142v-222q0 -42 31 -42q18 0 29.5 11 t16.5 34.5t6.5 46t1.5 60.5h32v-65q0 -26 -4.5 -49.5t-15.5 -47t-34 -37t-55 -13.5q-47 0 -72.5 24.5t-31.5 64.5l-4 2q-31 -34 -81 -62.5t-103 -28.5q-66 0 -108.5 27t-42.5 84zM244 1028q0 -76 78 -76q38 0 79 28t70 63v160q-81 -21 -146 -53q-81 -40 -81 -122z" />
<glyph unicode="&#xab;" horiz-adv-x="942" d="M182 420l334 376l34 -26l-216 -350l216 -350l-34 -26zM478 420l334 376l34 -26l-216 -350l216 -350l-34 -26z" />
<glyph unicode="&#xac;" d="M62 650v96h1028v-472h-112v376h-916z" />
<glyph unicode="&#xad;" horiz-adv-x="900" d="M136 346v132h628v-132h-628z" />
<glyph unicode="&#xae;" horiz-adv-x="1636" d="M60 730q0 160 58 300.5t158.5 241t241 158.5t300.5 58t300.5 -58t241 -158.5t158.5 -241t58 -300.5t-58 -300.5t-158.5 -241t-241 -158.5t-300.5 -58t-300.5 58t-241 158.5t-158.5 241t-58 300.5zM132 730q0 -190 90.5 -349.5t248 -252t347.5 -92.5t347.5 92.5t248 252 t90.5 349.5t-90.5 349.5t-248 252t-347.5 92.5t-347.5 -92.5t-248 -252t-90.5 -349.5zM384 272v56h124q50 0 50 50v688q0 50 -50 50h-124v56h518q78 0 141.5 -24.5t105.5 -81t42 -136.5q0 -94 -62.5 -152t-173.5 -74l2 -12q76 -21 121 -90q37 -58 52 -196q9 -78 50 -78 q35 0 56.5 54t21.5 117h45q0 -58 -16 -111t-53.5 -90.5t-89.5 -37.5q-65 0 -99 26t-51 80q-18 56 -27 188q-4 51 -30.5 91.5t-84.5 40.5h-148v-308q0 -50 50 -50h124v-56h-494zM704 742h130q94 0 152.5 48.5t58.5 139.5q0 90 -51.5 138t-125.5 48h-164v-374z" />
<glyph unicode="&#xaf;" horiz-adv-x="880" d="M152 1134v88h576v-88h-576z" />
<glyph unicode="&#x2c9;" horiz-adv-x="880" d="M152 1134v88h576v-88h-576z" />
<glyph unicode="&#xb0;" d="M200 1118q0 162 107 268t269 106t269 -106t107 -268t-107 -268t-269 -106t-269 106t-107 268zM280 1118q0 -126 85 -210t211 -84t211 84t85 210t-85 210t-211 84t-211 -84t-85 -210z" />
<glyph unicode="&#xb1;" d="M62 562v96h460v466h108v-466h460v-96h-460v-466h-108v466h-460zM62 -97v96h1028v-96h-1028z" />
<glyph unicode="&#xb2;" horiz-adv-x="660" d="M50 1244q0 96 68 162t184 66q126 0 200 -66t74 -157q0 -50 -13 -91t-44.5 -79.5t-64 -67t-90.5 -73.5q-125 -97 -165 -161l3 -9h258q66 0 77 50l25 116h48l-48 -278h-491v29q70 127 198 240q62 55 94 91t55.5 92.5t23.5 127.5q0 90 -41.5 141t-118.5 51q-80 0 -124 -46 t-44 -109q0 -30 24 -30q13 0 25 5q14 6 27 6q68 0 68 -57q0 -35 -25 -57t-63 -22q-54 0 -87 37t-33 89z" />
<glyph unicode="&#xb3;" horiz-adv-x="660" d="M60 814q0 54 25.5 87t70.5 33q33 0 49.5 -16.5t16.5 -40.5q0 -23 -8.5 -36t-31.5 -25q-11 -6 -21.5 -17.5t-10.5 -24.5q0 -86 147 -86q81 0 124 57.5t43 141.5q0 72 -35 124.5t-110 52.5q-14 0 -46 -6q-27 -6 -53 -6q-49 0 -49 31q0 33 49 33q29 0 53 -4q23 -4 46 -4 q52 0 86 51t34 111q0 68 -31.5 113t-97.5 45q-55 0 -90.5 -22.5t-35.5 -45.5q0 -30 20 -44q35 -23 35 -50q0 -22 -14 -36t-40 -14q-40 0 -66.5 26.5t-26.5 73.5q0 65 59.5 110.5t160.5 45.5q117 0 182 -56.5t65 -140.5q0 -68 -42 -114t-109 -69v-9q88 -15 140 -66.5 t52 -130.5q0 -110 -84 -176t-212 -66q-109 0 -176.5 45t-67.5 125z" />
<glyph unicode="&#xb4;" horiz-adv-x="880" d="M332 1085l204 283q32 44 61 69t63 25q32 0 51 -19.5t19 -49.5q0 -50 -98 -126l-270 -211z" />
<glyph unicode="&#x2ca;" horiz-adv-x="880" d="M332 1085l204 283q32 44 61 69t63 25q32 0 51 -19.5t19 -49.5q0 -50 -98 -126l-270 -211z" />
<glyph unicode="&#xb5;" horiz-adv-x="1164" d="M-68 -418q0 31 25 120l309 1122l144 10l-108 -408q-10 -38 -16.5 -86.5t-6.5 -65.5q0 -87 38.5 -146.5t100.5 -59.5q56 0 94.5 25t75.5 73q25 32 49.5 94t36.5 109l124 455l144 10l-111 -418q-37 -142 -37 -198q0 -50 26 -84t68 -34q47 0 79 25t58 71q27 46 55 131 l40 -12q-35 -149 -97 -236q-33 -47 -79.5 -71t-91.5 -24q-64 0 -112.5 45t-67.5 118l-14 4q-36 -69 -104 -118t-150 -49q-67 0 -113 43.5t-67 96.5h-10l-126 -456q-13 -47 -22 -74.5t-29.5 -54.5t-46.5 -27q-58 0 -58 70z" />
<glyph unicode="&#xb6;" horiz-adv-x="1188" d="M142 1080q0 96 48.5 183t135 142t188.5 55h586v-64h-228v-1864h-88v1864h-238v-1864h-88v1168q-139 18 -227.5 126t-88.5 254z" />
<glyph unicode="&#xb7;" horiz-adv-x="352" d="M48 596q0 54 37 91t91 37t91 -37t37 -91t-37 -91t-91 -37t-91 37t-37 91z" />
<glyph unicode="&#xb8;" horiz-adv-x="1007" d="M218 -450l22 44q40 -20 84 -20q56 0 96 33t40 94q0 52 -35 81.5t-102 29.5q-24 0 -46 -2l-12 36q45 31 109 39l66 135l46 -20l-54 -116q63 -12 105.5 -55t42.5 -97q0 -100 -73.5 -155t-188.5 -55q-55 0 -100 28z" />
<glyph unicode="&#xb9;" horiz-adv-x="660" d="M154 656v44h72q46 0 46 52v571q0 53 -47 53h-71v44q113 6 205 40h29v-708q0 -52 46 -52h72v-44h-352z" />
<glyph unicode="&#xba;" horiz-adv-x="780" d="M122 1165q0 117 78 189t190 72t190 -72t78 -189t-78 -189t-190 -72t-190 72t-78 189zM234 1165q0 -96 38.5 -156.5t117.5 -60.5t117.5 60.5t38.5 156.5t-38.5 156.5t-117.5 60.5t-117.5 -60.5t-38.5 -156.5z" />
<glyph unicode="&#xbb;" horiz-adv-x="942" d="M392 70l216 350l-216 350l34 26l334 -376l-334 -376zM96 70l216 350l-216 350l34 26l334 -376l-334 -376z" />
<glyph unicode="&#xbc;" horiz-adv-x="1540" d="M278 -16l896 1492h88l-898 -1492h-86zM924 214v44l360 558h72v-558h118v-44h-118v-118q0 -52 46 -52h72v-44h-352v44h72q46 0 46 52v118h-316zM988 258h252v392zM154 656v44h72q46 0 46 52v571q0 53 -47 53h-71v44q113 6 205 40h29v-708q0 -52 46 -52h72v-44h-352z" />
<glyph unicode="&#xbd;" horiz-adv-x="1540" d="M278 -16l896 1492h88l-898 -1492h-86zM930 588q0 96 68 162t184 66q126 0 200 -66t74 -157q0 -50 -13 -91t-44.5 -79.5t-64 -67t-90.5 -73.5q-125 -97 -165 -161l3 -9h258q66 0 77 50l25 116h48l-48 -278h-491v29q70 127 198 240q62 55 94 91t55.5 92.5t23.5 127.5 q0 90 -41.5 141t-118.5 51q-80 0 -124 -46t-44 -109q0 -30 24 -30q13 0 25 5q14 6 27 6q68 0 68 -57q0 -35 -25 -57t-63 -22q-54 0 -87 37t-33 89zM154 656v44h72q46 0 46 52v571q0 53 -47 53h-71v44q113 6 205 40h29v-708q0 -52 46 -52h72v-44h-352z" />
<glyph unicode="&#xbe;" horiz-adv-x="1540" d="M278 -16l896 1492h88l-898 -1492h-86zM924 214v44l360 558h72v-558h118v-44h-118v-118q0 -52 46 -52h72v-44h-352v44h72q46 0 46 52v118h-316zM988 258h252v392zM60 814q0 54 25.5 87t70.5 33q33 0 49.5 -16.5t16.5 -40.5q0 -23 -8.5 -36t-31.5 -25q-11 -6 -21.5 -17.5 t-10.5 -24.5q0 -86 147 -86q81 0 124 57.5t43 141.5q0 72 -35 124.5t-110 52.5q-14 0 -46 -6q-27 -6 -53 -6q-49 0 -49 31q0 33 49 33q29 0 53 -4q23 -4 46 -4q52 0 86 51t34 111q0 68 -31.5 113t-97.5 45q-55 0 -90.5 -22.5t-35.5 -45.5q0 -30 20 -44q35 -23 35 -50 q0 -22 -14 -36t-40 -14q-40 0 -66.5 26.5t-26.5 73.5q0 65 59.5 110.5t160.5 45.5q117 0 182 -56.5t65 -140.5q0 -68 -42 -114t-109 -69v-9q88 -15 140 -66.5t52 -130.5q0 -110 -84 -176t-212 -66q-109 0 -176.5 45t-67.5 125z" />
<glyph unicode="&#xbf;" horiz-adv-x="852" d="M428 824q0 54 37 91t91 37t91 -37t37 -91t-37 -91t-91 -37t-91 37t-37 91zM72 -158q0 380 351 435q39 6 64 36t25 77v199h72v-457q-52 3 -110 3q-141 0 -231.5 -86t-90.5 -216q0 -134 87 -231.5t214 -97.5q62 0 110.5 18.5t48.5 57.5q0 37 -29 62t-40.5 43.5t-11.5 45.5 q0 47 31 79t80 32q54 0 88 -42t34 -103q0 -108 -93 -182.5t-225 -74.5q-161 0 -267.5 116.5t-106.5 285.5z" />
<glyph unicode="&#xc0;" horiz-adv-x="1496" d="M504 1842q0 26 17.5 48t44.5 22q61 0 130 -64l256 -239l-22 -29l-314 148q-112 53 -112 114zM36 0v64h74q155 0 224 194l440 1230h62l381 -1204q33 -104 74 -162t97 -58h94v-64h-672v64h166q33 0 57.5 23.5t24.5 60.5q0 20 -6 40l-103 324h-430l-64 -185q-9 -25 -18 -67 t-9 -59q0 -26 5.5 -46t21 -42.5t51 -35.5t88.5 -13h92v-64h-650zM541 576h388l-186 588z" />
<glyph unicode="&#xc1;" horiz-adv-x="1496" d="M652 1609l256 239q69 64 130 64q27 0 44.5 -22t17.5 -48q0 -61 -112 -114l-314 -148zM36 0v64h74q155 0 224 194l440 1230h62l381 -1204q33 -104 74 -162t97 -58h94v-64h-672v64h166q33 0 57.5 23.5t24.5 60.5q0 20 -6 40l-103 324h-430l-64 -185q-9 -25 -18 -67t-9 -59 q0 -26 5.5 -46t21 -42.5t51 -35.5t88.5 -13h92v-64h-650zM541 576h388l-186 588z" />
<glyph unicode="&#xc2;" horiz-adv-x="1496" d="M446 1614q224 168 324 298h64q100 -130 324 -298l-22 -34l-334 188l-334 -188zM36 0v64h74q155 0 224 194l440 1230h62l381 -1204q33 -104 74 -162t97 -58h94v-64h-672v64h166q33 0 57.5 23.5t24.5 60.5q0 20 -6 40l-103 324h-430l-64 -185q-9 -25 -18 -67t-9 -59 q0 -26 5.5 -46t21 -42.5t51 -35.5t88.5 -13h92v-64h-650zM541 576h388l-186 588z" />
<glyph unicode="&#xc3;" horiz-adv-x="1496" d="M386 1667q44 74 108 124.5t144 50.5q95 0 202 -47q38 -16 60 -24.5t60 -16.5t77 -8q29 0 56.5 17.5t42.5 35t36 48.5l46 -22q-44 -74 -108 -124.5t-144 -50.5q-98 0 -203 48q-106 48 -196 48q-29 0 -56.5 -17.5t-42.5 -35t-36 -48.5zM36 0v64h74q155 0 224 194l440 1230 h62l381 -1204q33 -104 74 -162t97 -58h94v-64h-672v64h166q33 0 57.5 23.5t24.5 60.5q0 20 -6 40l-103 324h-430l-64 -185q-9 -25 -18 -67t-9 -59q0 -26 5.5 -46t21 -42.5t51 -35.5t88.5 -13h92v-64h-650zM541 576h388l-186 588z" />
<glyph unicode="&#xc4;" horiz-adv-x="1496" d="M466 1746q0 36 25.5 60t61.5 24t61.5 -24t25.5 -60t-25.5 -63t-61.5 -27t-61.5 27t-25.5 63zM964 1746q0 36 25.5 60t61.5 24t61.5 -24t25.5 -60t-25.5 -63t-61.5 -27t-61.5 27t-25.5 63zM36 0v64h74q155 0 224 194l440 1230h62l381 -1204q33 -104 74 -162t97 -58h94v-64 h-672v64h166q33 0 57.5 23.5t24.5 60.5q0 20 -6 40l-103 324h-430l-64 -185q-9 -25 -18 -67t-9 -59q0 -26 5.5 -46t21 -42.5t51 -35.5t88.5 -13h92v-64h-650zM541 576h388l-186 588z" />
<glyph unicode="&#xc5;" horiz-adv-x="1496" d="M536 1762q0 90 75 146t191 56t191 -56t75 -146t-75 -146t-191 -56t-191 56t-75 146zM600 1762q0 -61 54 -99.5t148 -38.5t148 38.5t54 99.5t-54 99.5t-148 38.5t-148 -38.5t-54 -99.5zM36 0v64h74q155 0 224 194l440 1230h62l381 -1204q33 -104 74 -162t97 -58h94v-64 h-672v64h166q33 0 57.5 23.5t24.5 60.5q0 20 -6 40l-103 324h-430l-64 -185q-9 -25 -18 -67t-9 -59q0 -26 5.5 -46t21 -42.5t51 -35.5t88.5 -13h92v-64h-650zM541 576h388l-186 588z" />
<glyph unicode="&#xc6;" horiz-adv-x="2350" d="M90 0v64h98q72 0 138 73q35 39 76 98l708 1019q42 61 42 99q0 43 -54 43h-254v64h1356l18 -572h-56q-7 92 -37 203.5t-81 176.5q-52 66 -107.5 97t-132.5 31h-364v-632h182q60 0 112 93.5t52 230.5h58v-712h-58q0 137 -52 230.5t-112 93.5h-182v-636h324 q100 0 174.5 34.5t131.5 113.5q46 64 70.5 143t45.5 223h60l-8 -578h-1232v64h172q78 0 78 80v556h-426l-244 -358q-61 -90 -61 -172q0 -47 26 -76.5t67 -29.5h160v-64h-688zM873 764h383v562z" />
<glyph unicode="&#xc7;" horiz-adv-x="1500" d="M148 723q0 159 50 302.5t131.5 244t187.5 159.5t217 59q158 0 256 -58q101 -60 161 -136h11l102 186h44v-640h-48q-35 203 -125 348q-68 110 -162.5 173t-204.5 63q-88 0 -157.5 -42t-113 -110t-73 -160.5t-41 -186.5t-11.5 -195q0 -143 24 -267t70.5 -220t121.5 -151.5 t170 -55.5q62 0 123.5 15.5t125.5 54t114 97.5t86 154t45 214h64q-5 -121 -38 -219.5t-82 -163.5t-113 -111.5t-127.5 -69.5t-131.5 -31l-51 -102q70 -11 116.5 -62.5t46.5 -117.5q0 -114 -83 -178t-209 -64q-37 0 -85.5 13t-78.5 31l24 54q68 -34 146 -34q56 0 99 34 t43 105q0 58 -39 94.5t-106 36.5q-32 0 -43 -2l-8 48q44 30 113 44l48 96q-128 0 -240.5 55.5t-194 153.5t-128 238.5t-46.5 303.5z" />
<glyph unicode="&#xc8;" horiz-adv-x="1424" d="M426 1842q0 26 17.5 48t44.5 22q61 0 130 -64l256 -239l-22 -29l-314 148q-112 53 -112 114zM80 0v64h172q78 0 78 80v1172q0 80 -78 80h-172v64h1194l18 -572h-56q-7 92 -37 203.5t-81 176.5q-52 66 -107.5 97t-132.5 31h-364v-606h182q60 0 112 93.5t52 230.5h58v-712 h-58q0 137 -52 230.5t-112 93.5h-182v-662h324q100 0 174.5 34.5t131.5 113.5q46 64 70.5 143t45.5 223h60l-8 -578h-1232z" />
<glyph unicode="&#xc9;" horiz-adv-x="1424" d="M574 1609l256 239q69 64 130 64q27 0 44.5 -22t17.5 -48q0 -61 -112 -114l-314 -148zM80 0v64h172q78 0 78 80v1172q0 80 -78 80h-172v64h1194l18 -572h-56q-7 92 -37 203.5t-81 176.5q-52 66 -107.5 97t-132.5 31h-364v-606h182q60 0 112 93.5t52 230.5h58v-712h-58 q0 137 -52 230.5t-112 93.5h-182v-662h324q100 0 174.5 34.5t131.5 113.5q46 64 70.5 143t45.5 223h60l-8 -578h-1232z" />
<glyph unicode="&#xca;" horiz-adv-x="1424" d="M368 1614q224 168 324 298h64q100 -130 324 -298l-22 -34l-334 188l-334 -188zM80 0v64h172q78 0 78 80v1172q0 80 -78 80h-172v64h1194l18 -572h-56q-7 92 -37 203.5t-81 176.5q-52 66 -107.5 97t-132.5 31h-364v-606h182q60 0 112 93.5t52 230.5h58v-712h-58 q0 137 -52 230.5t-112 93.5h-182v-662h324q100 0 174.5 34.5t131.5 113.5q46 64 70.5 143t45.5 223h60l-8 -578h-1232z" />
<glyph unicode="&#xcb;" horiz-adv-x="1424" d="M388 1746q0 36 25.5 60t61.5 24t61.5 -24t25.5 -60t-25.5 -63t-61.5 -27t-61.5 27t-25.5 63zM886 1746q0 36 25.5 60t61.5 24t61.5 -24t25.5 -60t-25.5 -63t-61.5 -27t-61.5 27t-25.5 63zM80 0v64h172q78 0 78 80v1172q0 80 -78 80h-172v64h1194l18 -572h-56 q-7 92 -37 203.5t-81 176.5q-52 66 -107.5 97t-132.5 31h-364v-606h182q60 0 112 93.5t52 230.5h58v-712h-58q0 137 -52 230.5t-112 93.5h-182v-662h324q100 0 174.5 34.5t131.5 113.5q46 64 70.5 143t45.5 223h60l-8 -578h-1232z" />
<glyph unicode="&#xcc;" horiz-adv-x="804" d="M124 1842q0 26 17.5 48t44.5 22q61 0 130 -64l256 -239l-22 -29l-314 148q-112 53 -112 114zM80 0v64h172q78 0 78 80v1172q0 80 -78 80h-172v64h684v-64h-172q-78 0 -78 -80v-1172q0 -80 78 -80h172v-64h-684z" />
<glyph unicode="&#xcd;" horiz-adv-x="804" d="M272 1609l256 239q69 64 130 64q27 0 44.5 -22t17.5 -48q0 -61 -112 -114l-314 -148zM80 0v64h172q78 0 78 80v1172q0 80 -78 80h-172v64h684v-64h-172q-78 0 -78 -80v-1172q0 -80 78 -80h172v-64h-684z" />
<glyph unicode="&#xce;" horiz-adv-x="804" d="M66 1614q224 168 324 298h64q100 -130 324 -298l-22 -34l-334 188l-334 -188zM80 0v64h172q78 0 78 80v1172q0 80 -78 80h-172v64h684v-64h-172q-78 0 -78 -80v-1172q0 -80 78 -80h172v-64h-684z" />
<glyph unicode="&#xcf;" horiz-adv-x="804" d="M86 1746q0 36 25.5 60t61.5 24t61.5 -24t25.5 -60t-25.5 -63t-61.5 -27t-61.5 27t-25.5 63zM584 1746q0 36 25.5 60t61.5 24t61.5 -24t25.5 -60t-25.5 -63t-61.5 -27t-61.5 27t-25.5 63zM80 0v64h172q78 0 78 80v1172q0 80 -78 80h-172v64h684v-64h-172q-78 0 -78 -80 v-1172q0 -80 78 -80h172v-64h-684z" />
<glyph unicode="&#xd0;" horiz-adv-x="1568" d="M80 0v64h172q78 0 78 80v574h-234v76h234v522q0 80 -78 80h-172v64h768q139 0 256 -57t195 -155.5t121.5 -232t43.5 -285.5t-43.5 -285.5t-121.5 -232t-195 -155.5t-256 -57h-768zM514 144q0 -80 78 -80h244q57 0 108.5 15.5t107.5 60.5t96 116.5t66 193t26 280.5 t-26 280.5t-66 193t-96 116.5t-107.5 60.5t-108.5 15.5h-244q-78 0 -78 -80v-522h271v-76h-271v-574z" />
<glyph unicode="&#xd1;" horiz-adv-x="1570" d="M420 1667q44 74 108 124.5t144 50.5q95 0 202 -47q38 -16 60 -24.5t60 -16.5t77 -8q29 0 56.5 17.5t42.5 35t36 48.5l46 -22q-44 -74 -108 -124.5t-144 -50.5q-98 0 -203 48q-106 48 -196 48q-29 0 -56.5 -17.5t-42.5 -35t-36 -48.5zM80 0v64h112q62 0 100 46.5t38 105.5 v1017q0 19 -11.5 50.5t-34.5 57.5q-48 55 -102 55h-102v64h370l804 -1098v948q0 40 -20 63t-58 23h-172v64h540v-64h-122q-38 0 -59 -23t-21 -63v-1334h-34l-890 1209v-969q0 -59 38 -105.5t100 -46.5h112v-64h-588z" />
<glyph unicode="&#xd2;" horiz-adv-x="1552" d="M498 1842q0 26 17.5 48t44.5 22q61 0 130 -64l256 -239l-22 -29l-314 148q-112 53 -112 114zM144 730q0 358 226 584q80 80 192 127t234 47t234 -47t192 -127q226 -226 226 -584t-226 -584q-80 -80 -192 -127t-234 -47t-234 47t-192 127q-226 226 -226 584zM368 730 q0 -377 138 -551q65 -82 132 -112.5t158 -30.5t158 30.5t132 112.5q138 174 138 551t-138 551q-65 82 -132 112.5t-158 30.5t-158 -30.5t-132 -112.5q-138 -174 -138 -551z" />
<glyph unicode="&#xd3;" horiz-adv-x="1552" d="M646 1609l256 239q69 64 130 64q27 0 44.5 -22t17.5 -48q0 -61 -112 -114l-314 -148zM144 730q0 358 226 584q80 80 192 127t234 47t234 -47t192 -127q226 -226 226 -584t-226 -584q-80 -80 -192 -127t-234 -47t-234 47t-192 127q-226 226 -226 584zM368 730 q0 -377 138 -551q65 -82 132 -112.5t158 -30.5t158 30.5t132 112.5q138 174 138 551t-138 551q-65 82 -132 112.5t-158 30.5t-158 -30.5t-132 -112.5q-138 -174 -138 -551z" />
<glyph unicode="&#xd4;" horiz-adv-x="1552" d="M440 1614q224 168 324 298h64q100 -130 324 -298l-22 -34l-334 188l-334 -188zM144 730q0 358 226 584q80 80 192 127t234 47t234 -47t192 -127q226 -226 226 -584t-226 -584q-80 -80 -192 -127t-234 -47t-234 47t-192 127q-226 226 -226 584zM368 730q0 -377 138 -551 q65 -82 132 -112.5t158 -30.5t158 30.5t132 112.5q138 174 138 551t-138 551q-65 82 -132 112.5t-158 30.5t-158 -30.5t-132 -112.5q-138 -174 -138 -551z" />
<glyph unicode="&#xd5;" horiz-adv-x="1552" d="M380 1667q44 74 108 124.5t144 50.5q95 0 202 -47q38 -16 60 -24.5t60 -16.5t77 -8q29 0 56.5 17.5t42.5 35t36 48.5l46 -22q-44 -74 -108 -124.5t-144 -50.5q-98 0 -203 48q-106 48 -196 48q-29 0 -56.5 -17.5t-42.5 -35t-36 -48.5zM144 730q0 358 226 584 q80 80 192 127t234 47t234 -47t192 -127q226 -226 226 -584t-226 -584q-80 -80 -192 -127t-234 -47t-234 47t-192 127q-226 226 -226 584zM368 730q0 -377 138 -551q65 -82 132 -112.5t158 -30.5t158 30.5t132 112.5q138 174 138 551t-138 551q-65 82 -132 112.5t-158 30.5 t-158 -30.5t-132 -112.5q-138 -174 -138 -551z" />
<glyph unicode="&#xd6;" horiz-adv-x="1552" d="M460 1746q0 36 25.5 60t61.5 24t61.5 -24t25.5 -60t-25.5 -63t-61.5 -27t-61.5 27t-25.5 63zM958 1746q0 36 25.5 60t61.5 24t61.5 -24t25.5 -60t-25.5 -63t-61.5 -27t-61.5 27t-25.5 63zM144 730q0 358 226 584q80 80 192 127t234 47t234 -47t192 -127 q226 -226 226 -584t-226 -584q-80 -80 -192 -127t-234 -47t-234 47t-192 127q-226 226 -226 584zM368 730q0 -377 138 -551q65 -82 132 -112.5t158 -30.5t158 30.5t132 112.5q138 174 138 551t-138 551q-65 82 -132 112.5t-158 30.5t-158 -30.5t-132 -112.5 q-138 -174 -138 -551z" />
<glyph unicode="&#xd7;" d="M179 183l329 330l-329 330l67 67l330 -329l330 329l67 -67l-329 -330l329 -330l-67 -67l-330 329l-330 -329z" />
<glyph unicode="&#xd8;" horiz-adv-x="1552" d="M144 730q0 358 226 584q80 80 192 127t234 47q113 0 226.5 -44t202.5 -133l149 177l68 -58l-157 -187q163 -209 163 -513q0 -358 -226 -584q-80 -80 -192 -127t-234 -47q-113 0 -226.5 44t-202.5 133l-149 -177l-68 58l157 187q-163 206 -163 513zM368 730 q0 -232 49 -382l719 856q-32 57 -68 98.5t-68.5 64.5t-70.5 36.5t-67.5 17t-65.5 3.5q-91 0 -158 -30.5t-132 -112.5q-138 -174 -138 -551zM456 256q32 -57 68 -98.5t68.5 -64.5t70.5 -36.5t67.5 -17t65.5 -3.5q91 0 158 30.5t132 112.5q138 174 138 551q0 232 -49 382z" />
<glyph unicode="&#xd9;" horiz-adv-x="1630" d="M574 1842q0 26 17.5 48t44.5 22q61 0 130 -64l256 -239l-22 -29l-314 148q-112 53 -112 114zM80 1396v64h684v-64h-172q-78 0 -78 -80v-944q0 -171 84 -253.5t270 -82.5q100 0 179.5 30t125.5 78t69.5 103t23.5 110v887q0 59 -38 105.5t-100 46.5h-112v64h588v-64h-112 q-62 0 -100 -46.5t-38 -105.5v-858q0 -86 -32 -160.5t-91.5 -131t-153 -89.5t-209.5 -33q-538 0 -538 448v896q0 80 -78 80h-172z" />
<glyph unicode="&#xda;" horiz-adv-x="1630" d="M722 1609l256 239q69 64 130 64q27 0 44.5 -22t17.5 -48q0 -61 -112 -114l-314 -148zM80 1396v64h684v-64h-172q-78 0 -78 -80v-944q0 -171 84 -253.5t270 -82.5q100 0 179.5 30t125.5 78t69.5 103t23.5 110v887q0 59 -38 105.5t-100 46.5h-112v64h588v-64h-112 q-62 0 -100 -46.5t-38 -105.5v-858q0 -86 -32 -160.5t-91.5 -131t-153 -89.5t-209.5 -33q-538 0 -538 448v896q0 80 -78 80h-172z" />
<glyph unicode="&#xdb;" horiz-adv-x="1630" d="M516 1614q224 168 324 298h64q100 -130 324 -298l-22 -34l-334 188l-334 -188zM80 1396v64h684v-64h-172q-78 0 -78 -80v-944q0 -171 84 -253.5t270 -82.5q100 0 179.5 30t125.5 78t69.5 103t23.5 110v887q0 59 -38 105.5t-100 46.5h-112v64h588v-64h-112 q-62 0 -100 -46.5t-38 -105.5v-858q0 -86 -32 -160.5t-91.5 -131t-153 -89.5t-209.5 -33q-538 0 -538 448v896q0 80 -78 80h-172z" />
<glyph unicode="&#xdc;" horiz-adv-x="1630" d="M536 1746q0 36 25.5 60t61.5 24t61.5 -24t25.5 -60t-25.5 -63t-61.5 -27t-61.5 27t-25.5 63zM1034 1746q0 36 25.5 60t61.5 24t61.5 -24t25.5 -60t-25.5 -63t-61.5 -27t-61.5 27t-25.5 63zM80 1396v64h684v-64h-172q-78 0 -78 -80v-944q0 -171 84 -253.5t270 -82.5 q100 0 179.5 30t125.5 78t69.5 103t23.5 110v887q0 59 -38 105.5t-100 46.5h-112v64h588v-64h-112q-62 0 -100 -46.5t-38 -105.5v-858q0 -86 -32 -160.5t-91.5 -131t-153 -89.5t-209.5 -33q-538 0 -538 448v896q0 80 -78 80h-172z" />
<glyph unicode="&#xdd;" horiz-adv-x="1660" d="M706 1609l256 239q69 64 130 64q27 0 44.5 -22t17.5 -48q0 -61 -112 -114l-314 -148zM88 1396v64h695v-64h-144q-35 0 -55 -20t-20 -54q0 -26 18 -54l311 -513l293 449q48 73 48 130q0 48 -46 56q-26 6 -116 6h-96v64h636v-64q-86 0 -138 -12t-77 -30.5t-49 -53.5 l-418 -626v-530q0 -80 78 -80h172v-64h-684v64h172q78 0 78 80v520l-386 614q-28 44 -73 78q-53 40 -113 40h-86z" />
<glyph unicode="&#xde;" horiz-adv-x="1414" d="M84 -499l176 88q41 20 55.5 53t14.5 87v1460q0 58 -24.5 77.5t-87.5 19.5h-130v64l380 138h46v-340l394 227q73 41 98 41q44 0 97.5 -49t99 -126t76.5 -183t31 -210q0 -218 -70 -379t-235 -304q-163 -142 -491 -221v-312l-400 -192zM514 12q231 57 362 174 q125 112 167.5 246.5t42.5 353.5q0 104 -32.5 210.5t-84.5 175t-104 68.5q-47 0 -94 -27l-257 -146v-1055z" />
<glyph unicode="&#xdf;" horiz-adv-x="1110" d="M48 0v56h124q50 0 50 50v908q0 118 32 211t86 149t122 85t144 29q153 0 242.5 -80.5t89.5 -225.5q0 -127 -81 -206.5t-209 -112.5v-10q163 -47 264.5 -174.5t101.5 -309.5q0 -97 -27.5 -172t-75 -121t-109 -69t-132.5 -23q-89 0 -152.5 47.5t-63.5 135.5q0 59 35 102 t87 43q33 0 56.5 -22t23.5 -53q0 -45 -41 -82q-29 -27 -29 -57q0 -24 26.5 -41t60.5 -17q171 0 171 336q0 197 -89 322.5t-219 125.5h-66v56h66q96 0 164 80.5t68 229.5q0 115 -46 178.5t-135 63.5q-38 0 -74.5 -21t-70 -64t-54 -121.5t-20.5 -181.5v-1044h-320z" />
<glyph unicode="&#xe0;" horiz-adv-x="1032" d="M178 1393q0 30 19 49.5t51 19.5q34 0 63 -25t61 -69l204 -283l-30 -29l-270 211q-98 76 -98 126zM88 190q0 187 279 290q126 46 273 79v77q0 36 -10 72.5t-31 72t-60 57.5t-91 22q-80 0 -115 -18q-51 -26 -51 -60q0 -30 24 -61q37 -45 37 -82q0 -36 -20 -61.5t-67 -25.5 q-53 0 -86.5 37t-33.5 91q0 96 80 166t222 70q89 0 157.5 -28.5t109 -78.5t61 -112t20.5 -135v-435q0 -26 15.5 -40.5t32.5 -14.5q29 0 48 14.5t27.5 44.5t11.5 61t3 77t-6 136h44q6 -61 6 -136q0 -60 -5.5 -103.5t-21 -88.5t-49.5 -69t-86 -24q-77 0 -121.5 43t-44.5 129 l-6 3q-63 -80 -132.5 -127.5t-161.5 -47.5q-111 0 -181.5 51t-70.5 155zM258 212q0 -63 42.5 -109.5t103.5 -46.5q108 0 236 177v284q-139 -30 -252 -93q-130 -73 -130 -212z" />
<glyph unicode="&#xe1;" horiz-adv-x="1032" d="M360 1085l204 283q32 44 61 69t63 25q32 0 51 -19.5t19 -49.5q0 -50 -98 -126l-270 -211zM88 190q0 187 279 290q126 46 273 79v77q0 36 -10 72.5t-31 72t-60 57.5t-91 22q-80 0 -115 -18q-51 -26 -51 -60q0 -30 24 -61q37 -45 37 -82q0 -36 -20 -61.5t-67 -25.5 q-53 0 -86.5 37t-33.5 91q0 96 80 166t222 70q89 0 157.5 -28.5t109 -78.5t61 -112t20.5 -135v-435q0 -26 15.5 -40.5t32.5 -14.5q29 0 48 14.5t27.5 44.5t11.5 61t3 77t-6 136h44q6 -61 6 -136q0 -60 -5.5 -103.5t-21 -88.5t-49.5 -69t-86 -24q-77 0 -121.5 43t-44.5 129 l-6 3q-63 -80 -132.5 -127.5t-161.5 -47.5q-111 0 -181.5 51t-70.5 155zM258 212q0 -63 42.5 -109.5t103.5 -46.5q108 0 236 177v284q-139 -30 -252 -93q-130 -73 -130 -212z" />
<glyph unicode="&#xe2;" horiz-adv-x="1032" d="M134 1095q174 171 302 357h64q128 -186 302 -357l-30 -29l-304 230l-304 -230zM88 190q0 187 279 290q126 46 273 79v77q0 36 -10 72.5t-31 72t-60 57.5t-91 22q-80 0 -115 -18q-51 -26 -51 -60q0 -30 24 -61q37 -45 37 -82q0 -36 -20 -61.5t-67 -25.5q-53 0 -86.5 37 t-33.5 91q0 96 80 166t222 70q89 0 157.5 -28.5t109 -78.5t61 -112t20.5 -135v-435q0 -26 15.5 -40.5t32.5 -14.5q29 0 48 14.5t27.5 44.5t11.5 61t3 77t-6 136h44q6 -61 6 -136q0 -60 -5.5 -103.5t-21 -88.5t-49.5 -69t-86 -24q-77 0 -121.5 43t-44.5 129l-6 3 q-63 -80 -132.5 -127.5t-161.5 -47.5q-111 0 -181.5 51t-70.5 155zM258 212q0 -63 42.5 -109.5t103.5 -46.5q108 0 236 177v284q-139 -30 -252 -93q-130 -73 -130 -212z" />
<glyph unicode="&#xe3;" horiz-adv-x="1032" d="M96 1091q38 84 96 141.5t130 57.5q83 0 180 -53q95 -53 176 -53q62 0 122 112l40 -25q-38 -84 -96 -141.5t-130 -57.5q-83 0 -181 54q-96 52 -175 52q-62 0 -122 -112zM88 190q0 187 279 290q126 46 273 79v77q0 36 -10 72.5t-31 72t-60 57.5t-91 22q-80 0 -115 -18 q-51 -26 -51 -60q0 -30 24 -61q37 -45 37 -82q0 -36 -20 -61.5t-67 -25.5q-53 0 -86.5 37t-33.5 91q0 96 80 166t222 70q89 0 157.5 -28.5t109 -78.5t61 -112t20.5 -135v-435q0 -26 15.5 -40.5t32.5 -14.5q29 0 48 14.5t27.5 44.5t11.5 61t3 77t-6 136h44q6 -61 6 -136 q0 -60 -5.5 -103.5t-21 -88.5t-49.5 -69t-86 -24q-77 0 -121.5 43t-44.5 129l-6 3q-63 -80 -132.5 -127.5t-161.5 -47.5q-111 0 -181.5 51t-70.5 155zM258 212q0 -63 42.5 -109.5t103.5 -46.5q108 0 236 177v284q-139 -30 -252 -93q-130 -73 -130 -212z" />
<glyph unicode="&#xe4;" horiz-adv-x="1032" d="M163 1208q0 42 27 69t69 27t69 -27t27 -69t-27 -69t-69 -27t-69 27t-27 69zM581 1208q0 42 27 69t69 27t69 -27t27 -69t-27 -69t-69 -27t-69 27t-27 69zM88 190q0 187 279 290q126 46 273 79v77q0 36 -10 72.5t-31 72t-60 57.5t-91 22q-80 0 -115 -18q-51 -26 -51 -60 q0 -30 24 -61q37 -45 37 -82q0 -36 -20 -61.5t-67 -25.5q-53 0 -86.5 37t-33.5 91q0 96 80 166t222 70q89 0 157.5 -28.5t109 -78.5t61 -112t20.5 -135v-435q0 -26 15.5 -40.5t32.5 -14.5q29 0 48 14.5t27.5 44.5t11.5 61t3 77t-6 136h44q6 -61 6 -136q0 -60 -5.5 -103.5 t-21 -88.5t-49.5 -69t-86 -24q-77 0 -121.5 43t-44.5 129l-6 3q-63 -80 -132.5 -127.5t-161.5 -47.5q-111 0 -181.5 51t-70.5 155zM258 212q0 -63 42.5 -109.5t103.5 -46.5q108 0 236 177v284q-139 -30 -252 -93q-130 -73 -130 -212z" />
<glyph unicode="&#xe5;" horiz-adv-x="1032" d="M238 1258q0 99 65.5 164.5t164.5 65.5t164.5 -65.5t65.5 -164.5t-65.5 -164.5t-164.5 -65.5t-164.5 65.5t-65.5 164.5zM294 1258q0 -74 50 -124t124 -50t124 50t50 124t-50 124t-124 50q-72 0 -123 -50.5t-51 -123.5zM88 190q0 187 279 290q126 46 273 79v77 q0 36 -10 72.5t-31 72t-60 57.5t-91 22q-80 0 -115 -18q-51 -26 -51 -60q0 -30 24 -61q37 -45 37 -82q0 -36 -20 -61.5t-67 -25.5q-53 0 -86.5 37t-33.5 91q0 96 80 166t222 70q89 0 157.5 -28.5t109 -78.5t61 -112t20.5 -135v-435q0 -26 15.5 -40.5t32.5 -14.5 q29 0 48 14.5t27.5 44.5t11.5 61t3 77t-6 136h44q6 -61 6 -136q0 -60 -5.5 -103.5t-21 -88.5t-49.5 -69t-86 -24q-77 0 -121.5 43t-44.5 129l-6 3q-63 -80 -132.5 -127.5t-161.5 -47.5q-111 0 -181.5 51t-70.5 155zM258 212q0 -63 42.5 -109.5t103.5 -46.5q108 0 236 177 v284q-139 -30 -252 -93q-130 -73 -130 -212z" />
<glyph unicode="&#xe6;" horiz-adv-x="1456" d="M60 190q0 187 279 290q126 46 273 79v77q0 36 -10 72.5t-31 72t-60 57.5t-91 22q-80 0 -115 -18q-51 -26 -51 -60q0 -30 24 -61q37 -45 37 -82q0 -36 -20 -61.5t-67 -25.5q-53 0 -86.5 37t-33.5 91q0 96 80 166t222 70q205 0 295 -145q119 145 319 145q76 0 136.5 -27.5 t98.5 -72t63.5 -104.5t35.5 -120.5t10 -123.5h-598v-18q0 -410 254 -410q75 0 132 28.5t90.5 76.5t51 98.5t24.5 107.5h58q-3 -46 -14.5 -92.5t-38.5 -97t-65.5 -89t-100 -63.5t-137.5 -25q-248 0 -366 217h-6q-138 -217 -340 -217q-111 0 -181.5 51t-70.5 155zM230 212 q0 -63 42.5 -109.5t103.5 -46.5q69 0 132 51t104 116v294q-139 -30 -252 -93q-130 -73 -130 -212zM772 524h345q47 0 64 22t17 61q0 41 -8 81t-26 80.5t-54 66t-86 25.5q-230 0 -252 -336z" />
<glyph unicode="&#xe7;" horiz-adv-x="940" d="M84 450q0 204 127 335t337 131q61 0 111 -17t81 -43t52 -59t29.5 -62.5t8.5 -55.5q0 -56 -31.5 -93.5t-85.5 -37.5q-39 0 -65.5 24t-26.5 62q0 56 43 99q32 33 32 61q0 7 -3 14.5t-13 17t-25.5 17t-44 12.5t-64.5 5q-62 0 -111.5 -22.5t-83 -60.5t-55.5 -91t-32 -111.5 t-10 -124.5q0 -410 254 -410q75 0 132 28.5t90.5 76.5t51 98.5t24.5 107.5h58q-2 -42 -12 -85t-33 -90t-55.5 -84.5t-83.5 -66t-114 -37.5l-48 -104q63 -12 105.5 -55t42.5 -97q0 -100 -73.5 -155t-188.5 -55q-55 0 -100 28l22 44q40 -20 84 -20q56 0 96 33t40 94 q0 52 -35 81.5t-102 29.5q-24 0 -46 -2l-12 36q45 31 109 39l48 99q-191 0 -307.5 131.5t-116.5 334.5z" />
<glyph unicode="&#xe8;" horiz-adv-x="940" d="M218 1393q0 30 19 49.5t51 19.5q34 0 63 -25t61 -69l204 -283l-30 -29l-270 211q-98 76 -98 126zM84 450q0 203 116.5 334.5t307.5 131.5q76 0 136.5 -27.5t98.5 -72t63.5 -104.5t35.5 -120.5t10 -123.5h-598v-18q0 -410 254 -410q75 0 132 28.5t90.5 76.5t51 98.5 t24.5 107.5h58q-3 -46 -14.5 -92.5t-38.5 -97t-65.5 -89t-100 -63.5t-137.5 -25q-191 0 -307.5 131.5t-116.5 334.5zM256 524h345q47 0 64 22t17 61q0 41 -8 81t-26 80.5t-54 66t-86 25.5q-230 0 -252 -336z" />
<glyph unicode="&#xe9;" horiz-adv-x="940" d="M400 1085l204 283q32 44 61 69t63 25q32 0 51 -19.5t19 -49.5q0 -50 -98 -126l-270 -211zM84 450q0 203 116.5 334.5t307.5 131.5q76 0 136.5 -27.5t98.5 -72t63.5 -104.5t35.5 -120.5t10 -123.5h-598v-18q0 -410 254 -410q75 0 132 28.5t90.5 76.5t51 98.5t24.5 107.5 h58q-3 -46 -14.5 -92.5t-38.5 -97t-65.5 -89t-100 -63.5t-137.5 -25q-191 0 -307.5 131.5t-116.5 334.5zM256 524h345q47 0 64 22t17 61q0 41 -8 81t-26 80.5t-54 66t-86 25.5q-230 0 -252 -336z" />
<glyph unicode="&#xea;" horiz-adv-x="940" d="M174 1095q174 171 302 357h64q128 -186 302 -357l-30 -29l-304 230l-304 -230zM84 450q0 203 116.5 334.5t307.5 131.5q76 0 136.5 -27.5t98.5 -72t63.5 -104.5t35.5 -120.5t10 -123.5h-598v-18q0 -410 254 -410q75 0 132 28.5t90.5 76.5t51 98.5t24.5 107.5h58 q-3 -46 -14.5 -92.5t-38.5 -97t-65.5 -89t-100 -63.5t-137.5 -25q-191 0 -307.5 131.5t-116.5 334.5zM256 524h345q47 0 64 22t17 61q0 41 -8 81t-26 80.5t-54 66t-86 25.5q-230 0 -252 -336z" />
<glyph unicode="&#xeb;" horiz-adv-x="940" d="M203 1208q0 42 27 69t69 27t69 -27t27 -69t-27 -69t-69 -27t-69 27t-27 69zM621 1208q0 42 27 69t69 27t69 -27t27 -69t-27 -69t-69 -27t-69 27t-27 69zM84 450q0 203 116.5 334.5t307.5 131.5q76 0 136.5 -27.5t98.5 -72t63.5 -104.5t35.5 -120.5t10 -123.5h-598v-18 q0 -410 254 -410q75 0 132 28.5t90.5 76.5t51 98.5t24.5 107.5h58q-3 -46 -14.5 -92.5t-38.5 -97t-65.5 -89t-100 -63.5t-137.5 -25q-191 0 -307.5 131.5t-116.5 334.5zM256 524h345q47 0 64 22t17 61q0 41 -8 81t-26 80.5t-54 66t-86 25.5q-230 0 -252 -336z" />
<glyph unicode="&#xec;" horiz-adv-x="618" d="M-2 1393q0 30 19 49.5t51 19.5q34 0 63 -25t61 -69l204 -283l-30 -29l-270 211q-98 76 -98 126zM80 0v56h124q50 0 50 50v688q0 50 -50 50h-124v56l320 12v-806q0 -50 50 -50h124v-56h-494z" />
<glyph unicode="&#xed;" horiz-adv-x="618" d="M180 1085l204 283q32 44 61 69t63 25q32 0 51 -19.5t19 -49.5q0 -50 -98 -126l-270 -211zM80 0v56h124q50 0 50 50v688q0 50 -50 50h-124v56l320 12v-806q0 -50 50 -50h124v-56h-494z" />
<glyph unicode="&#xee;" horiz-adv-x="618" d="M22 1092q125 153 238 360h56q113 -207 238 -360l-28 -26l-238 230l-238 -230zM80 0v56h124q50 0 50 50v688q0 50 -50 50h-124v56l320 12v-806q0 -50 50 -50h124v-56h-494z" />
<glyph unicode="&#xef;" horiz-adv-x="618" d="M4 1208q0 42 27 69t69 27t69 -27t27 -69t-27 -69t-69 -27t-69 27t-27 69zM380 1208q0 42 27 69t69 27t69 -27t27 -69t-27 -69t-69 -27t-69 27t-27 69zM80 0v56h124q50 0 50 50v688q0 50 -50 50h-124v56l320 12v-806q0 -50 50 -50h124v-56h-494z" />
<glyph unicode="&#xf0;" horiz-adv-x="1050" d="M48 940v176q0 46 29 46q20 0 32.5 -20.5t25.5 -58.5q16 -45 42 -45q18 0 43 13l151 83l-161 200l-27 35q-9 12 -17 30.5t-8 35.5q0 18 13 27.5t31 9.5h89l213 -264l394 217q34 19 48 19q20 0 20 -30v-206q0 -19 -1 -28.5t-10 -20t-27 -10.5q-20 0 -32.5 22t-23.5 65 q-18 74 -52 74q-13 0 -47 -18l-233 -129l277 -343q49 -60 80.5 -118t45.5 -111.5t18.5 -92.5t4.5 -88q0 -79 -31.5 -155.5t-86 -136.5t-134.5 -97t-170 -37q-89 0 -169.5 29t-142.5 81.5t-99 134t-37 179.5q0 96 36 182.5t98.5 152.5t137 115.5t158.5 81.5l-120 149 l-290 -160q-34 -19 -48 -19q-20 0 -20 30zM266 414q0 -175 83.5 -274.5t194.5 -99.5q121 0 205.5 96t84.5 232q0 107 -44.5 203t-135.5 209l-94 117q-132 -68 -213 -192t-81 -291z" />
<glyph unicode="&#xf1;" horiz-adv-x="1168" d="M194 1091q38 84 96 141.5t130 57.5q83 0 180 -53q95 -53 176 -53q62 0 122 112l40 -25q-38 -84 -96 -141.5t-130 -57.5q-83 0 -181 54q-96 52 -175 52q-62 0 -122 -112zM62 0v56h124q50 0 50 50v688q0 50 -50 50h-124v56l320 12v-202l8 -5q134 211 287 211q84 0 131 -24 q70 -35 106 -104t36 -142v-540q0 -50 50 -50h124v-56h-494v56h124q50 0 50 50v566q0 80 -35.5 130t-114.5 50q-82 0 -174 -112q-53 -64 -98 -156v-478q0 -50 50 -50h124v-56h-494z" />
<glyph unicode="&#xf2;" horiz-adv-x="1016" d="M218 1393q0 30 19 49.5t51 19.5q34 0 63 -25t61 -69l204 -283l-30 -29l-270 211q-98 76 -98 126zM84 450q0 203 116.5 334.5t307.5 131.5t307.5 -131.5t116.5 -334.5t-116.5 -334.5t-307.5 -131.5t-307.5 131.5t-116.5 334.5zM254 450q0 -410 254 -410t254 410t-254 410 t-254 -410z" />
<glyph unicode="&#xf3;" horiz-adv-x="1016" d="M400 1085l204 283q32 44 61 69t63 25q32 0 51 -19.5t19 -49.5q0 -50 -98 -126l-270 -211zM84 450q0 203 116.5 334.5t307.5 131.5t307.5 -131.5t116.5 -334.5t-116.5 -334.5t-307.5 -131.5t-307.5 131.5t-116.5 334.5zM254 450q0 -410 254 -410t254 410t-254 410 t-254 -410z" />
<glyph unicode="&#xf4;" horiz-adv-x="1016" d="M174 1095q174 171 302 357h64q128 -186 302 -357l-30 -29l-304 230l-304 -230zM84 450q0 203 116.5 334.5t307.5 131.5t307.5 -131.5t116.5 -334.5t-116.5 -334.5t-307.5 -131.5t-307.5 131.5t-116.5 334.5zM254 450q0 -410 254 -410t254 410t-254 410t-254 -410z" />
<glyph unicode="&#xf5;" horiz-adv-x="1016" d="M136 1091q38 84 96 141.5t130 57.5q83 0 180 -53q95 -53 176 -53q62 0 122 112l40 -25q-38 -84 -96 -141.5t-130 -57.5q-83 0 -181 54q-96 52 -175 52q-62 0 -122 -112zM84 450q0 203 116.5 334.5t307.5 131.5t307.5 -131.5t116.5 -334.5t-116.5 -334.5t-307.5 -131.5 t-307.5 131.5t-116.5 334.5zM254 450q0 -410 254 -410t254 410t-254 410t-254 -410z" />
<glyph unicode="&#xf6;" horiz-adv-x="1016" d="M203 1208q0 42 27 69t69 27t69 -27t27 -69t-27 -69t-69 -27t-69 27t-27 69zM621 1208q0 42 27 69t69 27t69 -27t27 -69t-27 -69t-69 -27t-69 27t-27 69zM84 450q0 203 116.5 334.5t307.5 131.5t307.5 -131.5t116.5 -334.5t-116.5 -334.5t-307.5 -131.5t-307.5 131.5 t-116.5 334.5zM254 450q0 -410 254 -410t254 410t-254 410t-254 -410z" />
<glyph unicode="&#xf7;" d="M448 828q0 54 37 91t91 37t91 -37t37 -91t-37 -91t-91 -37t-91 37t-37 91zM62 466v96h1028v-96h-1028zM448 200q0 54 37 91t91 37t91 -37t37 -91t-37 -91t-91 -37t-91 37t-37 91z" />
<glyph unicode="&#xf8;" horiz-adv-x="1016" d="M84 450q0 203 116.5 334.5t307.5 131.5q168 0 281 -105l95 105l50 -46l-99 -109q97 -128 97 -311q0 -203 -116.5 -334.5t-307.5 -131.5q-166 0 -279 103l-93 -103l-50 46l97 107q-99 127 -99 313zM254 450q0 -124 23 -208l438 486q-63 132 -207 132q-254 0 -254 -410z M303 169q63 -129 205 -129q254 0 254 410q0 120 -22 205z" />
<glyph unicode="&#xf9;" horiz-adv-x="1136" d="M230 1393q0 30 19 49.5t51 19.5q34 0 63 -25t61 -69l204 -283l-30 -29l-270 211q-98 76 -98 126zM40 844v56l320 12v-684q0 -84 28.5 -132t105.5 -48q55 0 99 32.5t91 90.5q32 38 60 110t28 131v382q0 50 -50 50h-124v56l320 12v-806q0 -50 50 -50h124v-56h-320v201l-8 5 q-48 -91 -126.5 -156.5t-161.5 -65.5q-84 0 -131 24q-69 35 -100 102t-31 144v540q0 50 -50 50h-124z" />
<glyph unicode="&#xfa;" horiz-adv-x="1136" d="M412 1085l204 283q32 44 61 69t63 25q32 0 51 -19.5t19 -49.5q0 -50 -98 -126l-270 -211zM40 844v56l320 12v-684q0 -84 28.5 -132t105.5 -48q55 0 99 32.5t91 90.5q32 38 60 110t28 131v382q0 50 -50 50h-124v56l320 12v-806q0 -50 50 -50h124v-56h-320v201l-8 5 q-48 -91 -126.5 -156.5t-161.5 -65.5q-84 0 -131 24q-69 35 -100 102t-31 144v540q0 50 -50 50h-124z" />
<glyph unicode="&#xfb;" horiz-adv-x="1136" d="M186 1095q174 171 302 357h64q128 -186 302 -357l-30 -29l-304 230l-304 -230zM40 844v56l320 12v-684q0 -84 28.5 -132t105.5 -48q55 0 99 32.5t91 90.5q32 38 60 110t28 131v382q0 50 -50 50h-124v56l320 12v-806q0 -50 50 -50h124v-56h-320v201l-8 5 q-48 -91 -126.5 -156.5t-161.5 -65.5q-84 0 -131 24q-69 35 -100 102t-31 144v540q0 50 -50 50h-124z" />
<glyph unicode="&#xfc;" horiz-adv-x="1136" d="M215 1208q0 42 27 69t69 27t69 -27t27 -69t-27 -69t-69 -27t-69 27t-27 69zM633 1208q0 42 27 69t69 27t69 -27t27 -69t-27 -69t-69 -27t-69 27t-27 69zM40 844v56l320 12v-684q0 -84 28.5 -132t105.5 -48q55 0 99 32.5t91 90.5q32 38 60 110t28 131v382q0 50 -50 50 h-124v56l320 12v-806q0 -50 50 -50h124v-56h-320v201l-8 5q-48 -91 -126.5 -156.5t-161.5 -65.5q-84 0 -131 24q-69 35 -100 102t-31 144v540q0 50 -50 50h-124z" />
<glyph unicode="&#xfd;" horiz-adv-x="1040" d="M384 1085l204 283q32 44 61 69t63 25q32 0 51 -19.5t19 -49.5q0 -50 -98 -126l-270 -211zM6 -374q0 62 36 102t92 40q44 0 69 -29.5t25 -70.5q0 -36 -19 -60.5t-42 -32.5q-25 -9 -25 -21q0 -22 12 -33q20 -17 51 -17q47 0 89 34.5t62 88.5l126 348l-300 751 q-9 24 -15 36.5t-17.5 28t-26.5 26.5q-24 18 -46 22.5t-61 4.5v56h450v-56h-84q-25 0 -44 -11t-19 -31q0 -26 11 -55l225 -571l185 511q13 33 13 89q0 27 -17.5 47.5t-45.5 20.5h-114v56h428v-56q-40 0 -63.5 -5t-47.5 -23q-46 -36 -69 -93l-406 -1104q-63 -171 -230 -171 q-76 0 -129 50.5t-53 127.5z" />
<glyph unicode="&#xfe;" horiz-adv-x="1020" d="M44 1218v56l295 82h25v-598l8 -4q132 162 263 162q136 0 216.5 -92t80.5 -234q0 -97 -33 -187t-86.5 -160.5t-129 -133.5t-153 -108.5t-166.5 -84.5v-308l-272 -168l-30 48l124 78q32 20 32 84v1498q0 70 -70 70h-104zM364 -26q128 65 213 144.5t135 196t50 263.5 q0 111 -43 188.5t-115 77.5q-64 0 -120.5 -47.5t-119.5 -139.5v-683z" />
<glyph unicode="&#xff;" horiz-adv-x="1040" d="M187 1208q0 42 27 69t69 27t69 -27t27 -69t-27 -69t-69 -27t-69 27t-27 69zM605 1208q0 42 27 69t69 27t69 -27t27 -69t-27 -69t-69 -27t-69 27t-27 69zM6 -374q0 62 36 102t92 40q44 0 69 -29.5t25 -70.5q0 -36 -19 -60.5t-42 -32.5q-25 -9 -25 -21q0 -22 12 -33 q20 -17 51 -17q47 0 89 34.5t62 88.5l126 348l-300 751q-9 24 -15 36.5t-17.5 28t-26.5 26.5q-24 18 -46 22.5t-61 4.5v56h450v-56h-84q-25 0 -44 -11t-19 -31q0 -26 11 -55l225 -571l185 511q13 33 13 89q0 27 -17.5 47.5t-45.5 20.5h-114v56h428v-56q-40 0 -63.5 -5 t-47.5 -23q-46 -36 -69 -93l-406 -1104q-63 -171 -230 -171q-76 0 -129 50.5t-53 127.5z" />
<glyph unicode="&#x131;" horiz-adv-x="618" d="M80 0v56h124q50 0 50 50v688q0 50 -50 50h-124v56l320 12v-806q0 -50 50 -50h124v-56h-494z" />
<glyph unicode="&#x152;" horiz-adv-x="2380" d="M144 730q0 358 226 584q80 80 192 127t234 47q61 0 140 -16q60 -12 134 -12h1032l19 -572h-56q-6 91 -37 203t-82 177q-52 66 -107.5 97t-132.5 31h-364v-606h182q60 0 112 93.5t52 230.5h58v-712h-58q0 137 -52 230.5t-112 93.5h-182v-662h324q100 0 174.5 34.5 t131.5 113.5q46 64 70.5 143t45.5 223h60l-8 -578h-1070q-74 0 -134 -12q-79 -16 -140 -16q-122 0 -234 47t-192 127q-226 226 -226 584zM368 730q0 -377 138 -551q65 -82 132 -112.5t158 -30.5t158 30.5t132 112.5q20 25 33 47.5t26 74t13 118.5v619q0 154 -72 243 q-65 82 -132 112.5t-158 30.5t-158 -30.5t-132 -112.5q-138 -174 -138 -551z" />
<glyph unicode="&#x153;" horiz-adv-x="1694" d="M84 450q0 203 116.5 334.5t307.5 131.5q109 0 196 -45t143 -126q56 81 143 126t196 45q76 0 136.5 -27.5t98.5 -72t63.5 -104.5t35.5 -120.5t10 -123.5h-598v-18q0 -410 254 -410q75 0 132 28.5t90.5 76.5t51 98.5t24.5 107.5h58q-3 -46 -14.5 -92.5t-38.5 -97t-65.5 -89 t-100 -63.5t-137.5 -25q-109 0 -196 45.5t-143 126.5q-56 -81 -143 -126.5t-196 -45.5q-191 0 -307.5 131.5t-116.5 334.5zM254 450q0 -410 254 -410t254 410t-254 410t-254 -410zM934 524h345q47 0 64 22t17 61q0 41 -8 81t-26 80.5t-54 66t-86 25.5q-230 0 -252 -336z" />
<glyph unicode="&#x178;" horiz-adv-x="1660" d="M520 1746q0 36 25.5 60t61.5 24t61.5 -24t25.5 -60t-25.5 -63t-61.5 -27t-61.5 27t-25.5 63zM1018 1746q0 36 25.5 60t61.5 24t61.5 -24t25.5 -60t-25.5 -63t-61.5 -27t-61.5 27t-25.5 63zM88 1396v64h695v-64h-144q-35 0 -55 -20t-20 -54q0 -26 18 -54l311 -513l293 449 q48 73 48 130q0 48 -46 56q-26 6 -116 6h-96v64h636v-64q-86 0 -138 -12t-77 -30.5t-49 -53.5l-418 -626v-530q0 -80 78 -80h172v-64h-684v64h172q78 0 78 80v520l-386 614q-28 44 -73 78q-53 40 -113 40h-86z" />
<glyph unicode="&#x237;" horiz-adv-x="652" d="M-96 -358q0 55 36 96.5t86 41.5q41 0 66.5 -26.5t25.5 -63.5q0 -53 -46 -85q-17 -12 -23 -20t-6 -22q0 -27 22.5 -43t54.5 -16q90 0 137 64t47 225v1001q0 50 -50 50h-124v56l320 12v-1088q0 -66 -19.5 -130t-58.5 -120.5t-107 -91t-155 -34.5q-84 0 -145 56t-61 138z " />
<glyph unicode="&#x2c6;" horiz-adv-x="880" d="M106 1095q174 171 302 357h64q128 -186 302 -357l-30 -29l-304 230l-304 -230z" />
<glyph unicode="&#x2d9;" horiz-adv-x="880" d="M316 1206q0 52 36 88t88 36t88 -36t36 -88t-36 -88t-88 -36t-88 36t-36 88z" />
<glyph unicode="&#x2da;" horiz-adv-x="880" d="M210 1258q0 99 65.5 164.5t164.5 65.5t164.5 -65.5t65.5 -164.5t-65.5 -164.5t-164.5 -65.5t-164.5 65.5t-65.5 164.5zM266 1258q0 -74 50 -124t124 -50t124 50t50 124t-50 124t-124 50q-72 0 -123 -50.5t-51 -123.5z" />
<glyph unicode="&#x2dc;" horiz-adv-x="880" d="M68 1091q38 84 96 141.5t130 57.5q83 0 180 -53q95 -53 176 -53q62 0 122 112l40 -25q-38 -84 -96 -141.5t-130 -57.5q-83 0 -181 54q-96 52 -175 52q-62 0 -122 -112z" />
<glyph unicode="&#x3bc;" horiz-adv-x="1164" d="M-68 -418q0 31 25 120l309 1122l144 10l-108 -408q-10 -38 -16.5 -86.5t-6.5 -65.5q0 -87 38.5 -146.5t100.5 -59.5q56 0 94.5 25t75.5 73q25 32 49.5 94t36.5 109l124 455l144 10l-111 -418q-37 -142 -37 -198q0 -50 26 -84t68 -34q47 0 79 25t58 71q27 46 55 131 l40 -12q-35 -149 -97 -236q-33 -47 -79.5 -71t-91.5 -24q-64 0 -112.5 45t-67.5 118l-14 4q-36 -69 -104 -118t-150 -49q-67 0 -113 43.5t-67 96.5h-10l-126 -456q-13 -47 -22 -74.5t-29.5 -54.5t-46.5 -27q-58 0 -58 70z" />
<glyph unicode="&#x2000;" horiz-adv-x="982" />
<glyph unicode="&#x2001;" horiz-adv-x="1964" />
<glyph unicode="&#x2002;" horiz-adv-x="982" />
<glyph unicode="&#x2003;" horiz-adv-x="1964" />
<glyph unicode="&#x2004;" horiz-adv-x="654" />
<glyph unicode="&#x2005;" horiz-adv-x="491" />
<glyph unicode="&#x2006;" horiz-adv-x="327" />
<glyph unicode="&#x2007;" horiz-adv-x="327" />
<glyph unicode="&#x2008;" horiz-adv-x="245" />
<glyph unicode="&#x2009;" horiz-adv-x="392" />
<glyph unicode="&#x200a;" horiz-adv-x="109" />
<glyph unicode="&#x2010;" horiz-adv-x="900" d="M136 346v132h628v-132h-628z" />
<glyph unicode="&#x2011;" horiz-adv-x="900" d="M136 346v132h628v-132h-628z" />
<glyph unicode="&#x2013;" horiz-adv-x="1056" d="M12 372v96h1032v-96h-1032z" />
<glyph unicode="&#x2014;" horiz-adv-x="2096" d="M12 372v96h2072v-96h-2072z" />
<glyph unicode="&#x2018;" horiz-adv-x="528" d="M114 1072q0 49 11 94t39.5 99.5t88 111.5t146.5 111l27 -43q-91 -49 -167.5 -133t-76.5 -172q0 -36 30 -36q11 0 32 12q20 12 36 12q47 0 81 -26t34 -88q0 -49 -36 -81.5t-83 -32.5q-70 0 -114 47q-48 50 -48 125z" />
<glyph unicode="&#x2019;" horiz-adv-x="528" d="M102 943q91 49 167.5 133t76.5 172q0 36 -30 36q-11 0 -32 -12q-20 -12 -36 -12q-47 0 -81 26t-34 88q0 49 36 81.5t83 32.5q70 0 114 -47q48 -50 48 -125q0 -49 -11 -94t-39.5 -99.5t-88 -111.5t-146.5 -111z" />
<glyph unicode="&#x201a;" horiz-adv-x="528" d="M102 -299q91 49 167.5 133t76.5 172q0 36 -30 36q-11 0 -32 -12q-20 -12 -36 -12q-47 0 -81 26t-34 88q0 49 36 81.5t83 32.5q70 0 114 -47q48 -50 48 -125q0 -49 -11 -94t-39.5 -99.5t-88 -111.5t-146.5 -111z" />
<glyph unicode="&#x201c;" horiz-adv-x="924" d="M510 1072q0 49 11 94t39.5 99.5t88 111.5t146.5 111l27 -43q-91 -49 -167.5 -133t-76.5 -172q0 -36 30 -36q11 0 32 12q20 12 36 12q47 0 81 -26t34 -88q0 -49 -36 -81.5t-83 -32.5q-70 0 -114 47q-48 50 -48 125zM114 1072q0 49 11 94t39.5 99.5t88 111.5t146.5 111 l27 -43q-91 -49 -167.5 -133t-76.5 -172q0 -36 30 -36q11 0 32 12q20 12 36 12q47 0 81 -26t34 -88q0 -49 -36 -81.5t-83 -32.5q-70 0 -114 47q-48 50 -48 125z" />
<glyph unicode="&#x201d;" horiz-adv-x="924" d="M498 943q91 49 167.5 133t76.5 172q0 36 -30 36q-11 0 -32 -12q-20 -12 -36 -12q-47 0 -81 26t-34 88q0 49 36 81.5t83 32.5q70 0 114 -47q48 -50 48 -125q0 -49 -11 -94t-39.5 -99.5t-88 -111.5t-146.5 -111zM102 943q91 49 167.5 133t76.5 172q0 36 -30 36 q-11 0 -32 -12q-20 -12 -36 -12q-47 0 -81 26t-34 88q0 49 36 81.5t83 32.5q70 0 114 -47q48 -50 48 -125q0 -49 -11 -94t-39.5 -99.5t-88 -111.5t-146.5 -111z" />
<glyph unicode="&#x201e;" horiz-adv-x="924" d="M498 -299q91 49 167.5 133t76.5 172q0 36 -30 36q-11 0 -32 -12q-20 -12 -36 -12q-47 0 -81 26t-34 88q0 49 36 81.5t83 32.5q70 0 114 -47q48 -50 48 -125q0 -49 -11 -94t-39.5 -99.5t-88 -111.5t-146.5 -111zM102 -299q91 49 167.5 133t76.5 172q0 36 -30 36 q-11 0 -32 -12q-20 -12 -36 -12q-47 0 -81 26t-34 88q0 49 36 81.5t83 32.5q70 0 114 -47q48 -50 48 -125q0 -49 -11 -94t-39.5 -99.5t-88 -111.5t-146.5 -111z" />
<glyph unicode="&#x2022;" horiz-adv-x="1104" d="M324 688q0 99 64.5 163.5t163.5 64.5t163.5 -64.5t64.5 -163.5t-64.5 -163.5t-163.5 -64.5t-163.5 64.5t-64.5 163.5z" />
<glyph unicode="&#x2026;" horiz-adv-x="1584" d="M1192 104q0 54 37 91t91 37t91 -37t37 -91t-37 -91t-91 -37t-91 37t-37 91zM664 104q0 54 37 91t91 37t91 -37t37 -91t-37 -91t-91 -37t-91 37t-37 91zM136 104q0 54 37 91t91 37t91 -37t37 -91t-37 -91t-91 -37t-91 37t-37 91z" />
<glyph unicode="&#x202f;" horiz-adv-x="392" />
<glyph unicode="&#x2039;" horiz-adv-x="646" d="M182 420l334 376l34 -26l-216 -350l216 -350l-34 -26z" />
<glyph unicode="&#x203a;" horiz-adv-x="646" d="M96 70l216 350l-216 350l34 26l334 -376l-334 -376z" />
<glyph unicode="&#x2044;" horiz-adv-x="220" d="M-382 -16l896 1492h88l-898 -1492h-86z" />
<glyph unicode="&#x205f;" horiz-adv-x="491" />
<glyph unicode="&#x2074;" horiz-adv-x="660" d="M44 870v44l360 558h72v-558h118v-44h-118v-118q0 -52 46 -52h72v-44h-352v44h72q46 0 46 52v118h-316zM108 914h252v392z" />
<glyph unicode="&#x20ac;" horiz-adv-x="1600" d="M110 806l18 112h196q56 255 246 412.5t430 157.5q145 0 264 -54t198 -130l-40 -118q-103 95 -202.5 142.5t-219.5 47.5q-197 0 -344 -128.5t-200 -329.5h872l-38 -112h-854q-4 -33 -4 -76t4 -76h800l-38 -112h-742q53 -201 200 -329.5t344 -128.5q228 0 428 191v-139 q-87 -76 -188 -120t-240 -44q-240 0 -430 157.5t-246 412.5h-206l18 112h171q-3 38 -3 76t3 76h-197z" />
<glyph unicode="&#x2122;" horiz-adv-x="2264" d="M80 1056l5 404h768l5 -404h-44q-11 145 -51 237q-48 111 -171 111q-22 0 -36 -13t-14 -37v-688q0 -50 50 -50h124v-56h-494v56h124q50 0 50 50v688q0 24 -14 37t-36 13q-123 0 -171 -111q-40 -92 -51 -237h-44zM984 560v56h103q73 0 73 74v665q0 49 -49 49h-127v56h364 l240 -632l261 632h335v-56h-124q-50 0 -50 -50v-688q0 -50 50 -50h124v-56h-494v56h124q50 0 50 50v646h-1l-304 -730h-32l-283 745h-12v-637q0 -74 73 -74h103v-56h-424z" />
<glyph unicode="&#x2212;" d="M62 466v96h1028v-96h-1028z" />
<glyph unicode="&#xeb72;" horiz-adv-x="880" d="M174 1092q125 153 238 360h56q113 -207 238 -360l-28 -26l-238 230l-238 -230z" />
<glyph unicode="&#xeb74;" horiz-adv-x="880" d="M156 1208q0 42 27 69t69 27t69 -27t27 -69t-27 -69t-69 -27t-69 27t-27 69zM532 1208q0 42 27 69t69 27t69 -27t27 -69t-27 -69t-69 -27t-69 27t-27 69z" />
<glyph unicode="&#xeff3;" horiz-adv-x="880" d="M174 1762q0 90 75 146t191 56t191 -56t75 -146t-75 -146t-191 -56t-191 56t-75 146zM238 1762q0 -61 54 -99.5t148 -38.5t148 38.5t54 99.5t-54 99.5t-148 38.5t-148 -38.5t-54 -99.5z" />
<glyph unicode="&#xeff5;" horiz-adv-x="880" d="M24 1667q44 74 108 124.5t144 50.5q95 0 202 -47q38 -16 60 -24.5t60 -16.5t77 -8q29 0 56.5 17.5t42.5 35t36 48.5l46 -22q-44 -74 -108 -124.5t-144 -50.5q-98 0 -203 48q-106 48 -196 48q-29 0 -56.5 -17.5t-42.5 -35t-36 -48.5z" />
<glyph unicode="&#xeff7;" horiz-adv-x="880" d="M84 1614q224 168 324 298h64q100 -130 324 -298l-22 -34l-334 188l-334 -188z" />
<glyph unicode="&#xf6c9;" horiz-adv-x="880" d="M290 1609l256 239q69 64 130 64q27 0 44.5 -22t17.5 -48q0 -61 -112 -114l-314 -148z" />
<glyph unicode="&#xf6cb;" horiz-adv-x="880" d="M104 1746q0 36 25.5 60t61.5 24t61.5 -24t25.5 -60t-25.5 -63t-61.5 -27t-61.5 27t-25.5 63zM602 1746q0 36 25.5 60t61.5 24t61.5 -24t25.5 -60t-25.5 -63t-61.5 -27t-61.5 27t-25.5 63z" />
<glyph unicode="&#xf6ce;" horiz-adv-x="880" d="M142 1842q0 26 17.5 48t44.5 22q61 0 130 -64l256 -239l-22 -29l-314 148q-112 53 -112 114z" />
</font>
</defs>
</svg>
